  0
SECTION
  2
HEADER
  9
$ACADVER
  1
AC1015
  9
$ACADMAINTVER
 70
     6
  9
$DWGCODEPAGE
  3
ANSI_1252
  9
$INSBASE
 10
0.0
 20
0.0
 30
0.0
  9
$EXTMIN
 10
0.0
 20
0.0
 30
0.0
  9
$EXTMAX
 10
205.105301
 20
291.887451
 30
2.0
  9
$LIMMIN
 10
0.0
 20
0.0
  9
$LIMMAX
 10
420.0
 20
297.0
  9
$ORTHOMODE
 70
     0
  9
$REGENMODE
 70
     1
  9
$FILLMODE
 70
     1
  9
$QTEXTMODE
 70
     0
  9
$MIRRTEXT
 70
     1
  9
$LTSCALE
 40
1.0
  9
$ATTMODE
 70
     1
  9
$TEXTSIZE
 40
2.5
  9
$TRACEWID
 40
1.0
  9
$TEXTSTYLE
  7
STANDARD
  9
$CLAYER
  8
0
  9
$CELTYPE
  6
ByLayer
  9
$CECOLOR
 62
   256
  9
$CELTSCALE
 40
1.0
  9
$DISPSILH
 70
     0
  9
$DIMSCALE
 40
1.0
  9
$DIMASZ
 40
2.5
  9
$DIMEXO
 40
0.625
  9
$DIMDLI
 40
3.75
  9
$DIMRND
 40
0.0
  9
$DIMDLE
 40
0.0
  9
$DIMEXE
 40
1.25
  9
$DIMTP
 40
0.0
  9
$DIMTM
 40
0.0
  9
$DIMTXT
 40
2.5
  9
$DIMCEN
 40
2.5
  9
$DIMTSZ
 40
0.0
  9
$DIMTOL
 70
     0
  9
$DIMLIM
 70
     0
  9
$DIMTIH
 70
     0
  9
$DIMTOH
 70
     0
  9
$DIMSE1
 70
     0
  9
$DIMSE2
 70
     0
  9
$DIMTAD
 70
     1
  9
$DIMZIN
 70
     8
  9
$DIMBLK
  1

  9
$DIMASO
 70
     1
  9
$DIMSHO
 70
     1
  9
$DIMPOST
  1

  9
$DIMAPOST
  1

  9
$DIMALT
 70
     0
  9
$DIMALTD
 70
     3
  9
$DIMALTF
 40
0.03937
  9
$DIMLFAC
 40
1.0
  9
$DIMTOFL
 70
     1
  9
$DIMTVP
 40
0.0
  9
$DIMTIX
 70
     0
  9
$DIMSOXD
 70
     0
  9
$DIMSAH
 70
     0
  9
$DIMBLK1
  1

  9
$DIMBLK2
  1

  9
$DIMSTYLE
  2
STANDARD
  9
$DIMCLRD
 70
     0
  9
$DIMCLRE
 70
     0
  9
$DIMCLRT
 70
     0
  9
$DIMTFAC
 40
1.0
  9
$DIMGAP
 40
0.625
  9
$DIMJUST
 70
     0
  9
$DIMSD1
 70
     0
  9
$DIMSD2
 70
     0
  9
$DIMTOLJ
 70
     0
  9
$DIMTZIN
 70
     8
  9
$DIMALTZ
 70
     0
  9
$DIMALTTZ
 70
     0
  9
$DIMUPT
 70
     0
  9
$DIMDEC
 70
     2
  9
$DIMTDEC
 70
     2
  9
$DIMALTU
 70
     2
  9
$DIMALTTD
 70
     3
  9
$DIMTXSTY
  7
STANDARD
  9
$DIMAUNIT
 70
     0
  9
$DIMADEC
 70
     0
  9
$DIMALTRND
 40
0.0
  9
$DIMAZIN
 70
     0
  9
$DIMDSEP
 70
    44
  9
$DIMATFIT
 70
     0
  9
$DIMFRAC
 70
     0
  9
$DIMLDRBLK
  1

  9
$DIMLUNIT
 70
     2
  9
$DIMLWD
 70
    -2
  9
$DIMLWE
 70
    -2
  9
$DIMTMOVE
 70
     0
  9
$LUNITS
 70
     2
  9
$LUPREC
 70
     4
  9
$SKETCHINC
 40
1.0
  9
$FILLETRAD
 40
2.5
  9
$AUNITS
 70
     0
  9
$AUPREC
 70
     0
  9
$MENU
  1
.
  9
$ELEVATION
 40
0.0
  9
$PELEVATION
 40
0.0
  9
$THICKNESS
 40
0.0
  9
$LIMCHECK
 70
     0
  9
$CHAMFERA
 40
2.5
  9
$CHAMFERB
 40
2.5
  9
$CHAMFERC
 40
0.0
  9
$CHAMFERD
 40
0.0
  9
$SKPOLY
 70
     0
  9
$TDCREATE
 40
0.000000000
  9
$TDUCREATE
 40
0.000000000
  9
$TDUPDATE
 40
0.000000000
  9
$TDUUPDATE
 40
0.000000000
  9
$TDINDWG
 40
0.0000000000
  9
$TDUSRTIMER
 40
0.0000000000
  9
$USRTIMER
 70
     1
  9
$ANGBASE
 50
0.0
  9
$ANGDIR
 70
     0
  9
$PDMODE
 70
     0
  9
$PDSIZE
 40
0.0
  9
$PLINEWID
 40
0.0
  9
$SPLFRAME
 70
     0
  9
$SPLINETYPE
 70
     6
  9
$SPLINESEGS
 70
     8
  9
$HANDSEED
  5
20C
  9
$SURFTAB1
 70
     6
  9
$SURFTAB2
 70
     6
  9
$SURFTYPE
 70
     6
  9
$SURFU
 70
     6
  9
$SURFV
 70
     6
  9
$UCSBASE
  2

  9
$UCSNAME
  2

  9
$UCSORG
 10
0.0
 20
0.0
 30
0.0
  9
$UCSXDIR
 10
1.0
 20
0.0
 30
0.0
  9
$UCSYDIR
 10
0.0
 20
1.0
 30
0.0
  9
$UCSORTHOREF
  2

  9
$UCSORTHOVIEW
 70
     1
  9
$UCSORGTOP
 10
0.0
 20
0.0
 30
0.0
  9
$UCSORGBOTTOM
 10
0.0
 20
0.0
 30
0.0
  9
$UCSORGLEFT
 10
0.0
 20
0.0
 30
0.0
  9
$UCSORGRIGHT
 10
0.0
 20
0.0
 30
0.0
  9
$UCSORGFRONT
 10
0.0
 20
0.0
 30
0.0
  9
$UCSORGBACK
 10
0.0
 20
0.0
 30
0.0
  9
$PUCSBASE
  2

  9
$PUCSNAME
  2

  9
$PUCSORG
 10
0.0
 20
0.0
 30
0.0
  9
$PUCSXDIR
 10
1.0
 20
0.0
 30
0.0
  9
$PUCSYDIR
 10
0.0
 20
1.0
 30
0.0
  9
$PUCSORTHOREF
  2

  9
$PUCSORTHOVIEW
 70
     0
  9
$PUCSORGTOP
 10
0.0
 20
0.0
 30
0.0
  9
$PUCSORGBOTTOM
 10
0.0
 20
0.0
 30
0.0
  9
$PUCSORGLEFT
 10
0.0
 20
0.0
 30
0.0
  9
$PUCSORGRIGHT
 10
0.0
 20
0.0
 30
0.0
  9
$PUCSORGFRONT
 10
0.0
 20
0.0
 30
0.0
  9
$PUCSORGBACK
 10
0.0
 20
0.0
 30
0.0
  9
$USERI1
 70
     0
  9
$USERI2
 70
     0
  9
$USERI3
 70
     0
  9
$USERI4
 70
     0
  9
$USERI5
 70
     0
  9
$USERR1
 40
0.0
  9
$USERR2
 40
0.0
  9
$USERR3
 40
0.0
  9
$USERR4
 40
0.0
  9
$USERR5
 40
0.0
  9
$WORLDVIEW
 70
     1
  9
$SHADEDGE
 70
     3
  9
$SHADEDIF
 70
    70
  9
$TILEMODE
 70
     1
  9
$MAXACTVP
 70
    48
  9
$PINSBASE
 10
0.0
 20
0.0
 30
0.0
  9
$PLIMCHECK
 70
     0
  9
$PEXTMIN
 10
0.0
 20
0.0
 30
0.0
  9
$PEXTMAX
 10
205.105301
 20
291.887451
 30
2.0
  9
$PLIMMIN
 10
0.0
 20
0.0
  9
$PLIMMAX
 10
420.0
 20
297.0
  9
$UNITMODE
 70
     0
  9
$VISRETAIN
 70
     0
  9
$PLINEGEN
 70
     0
  9
$PSLTSCALE
 70
     1
  9
$TREEDEPTH
 70
  3020
  9
$CMLSTYLE
  2
Standard
  9
$CMLJUST
 70
     0
  9
$CMLSCALE
 40
20.0
  9
$PROXYGRAPHICS
 70
     1
  9
$MEASUREMENT
 70
     1
  9
$CELWEIGHT
370
    -1
  9
$ENDCAPS
280
     0
  9
$JOINSTYLE
280
     0
  9
$LWDISPLAY
290
     0
  9
$INSUNITS
 70
     0
  9
$HYPERLINKBASE
  1

  9
$STYLESHEET
  1

  9
$XEDIT
290
     1
  9
$CEPSNTYPE
380
     0
  9
$PSTYLEMODE
290
     0
  9
$FINGERPRINTGUID
  2

  9
$VERSIONGUID
  2

  9
$EXTNAMES
290
     0
  9
$PSVPSCALE
 40
0.0
  0
ENDSEC
  0
SECTION
  2
CLASSES
  0
CLASS
  1
LWPOLYLINE
  2
AcDbPolyline
  3
AutoCAD 2000
 90
        0
280
     0
281
     1
  0
CLASS
  1
IMAGE
  2
AcDbRasterImage
  3
ISM
 90
      127
280
     0
281
     1
  0
CLASS
  1
OLE2FRAME
  2
AcDbOle2Frame
  3
AutoCAD 2000
 90
        0
280
     0
281
     1
  0
CLASS
  1
HATCH
  2
AcDbHatch
  3
AutoCAD 2000
 90
        0
280
     0
281
     1
  0
CLASS
  1
DICTIONARYVAR
  2
AcDbDictionaryVar
  3
AutoCAD 2000
 90
        0
280
     0
281
     0
  0
CLASS
  1
RASTERVARIABLES
  2
AcDbRasterVariables
  3
ISM
 90
        0
280
     0
281
     0
  0
CLASS
  1
IMAGEDEF
  2
AcDbRasterImageDef
  3
ISM
 90
        0
280
     0
281
     0
  0
CLASS
  1
IMAGEDEF_REACTOR
  2
AcDbRasterImageDefReactor
  3
ISM
 90
        1
280
     0
281
     0
  0
CLASS
  1
IDBUFFER
  2
AcDbIdBuffer
  3
AutoCAD 2000
 90
        0
280
     0
281
     0
  0
CLASS
  1
SPATIAL_FILTER
  2
AcDbSpatialFilter
  3
AutoCAD 2000
 90
        0
280
     0
281
     0
  0
CLASS
  1
XRECORD
  2
AcDbXrecord
  3
AutoCAD 2000
 90
        0
280
     0
281
     0
  0
CLASS
  1
SORTENTSTABLE
  2
AcDbSortentsTable
  3
AutoCAD 2000
 90
        0
280
     0
281
     0
  0
CLASS
  1
LAYER_INDEX
  2
AcDbLayerIndex
  3
AutoCAD 2000
 90
        0
280
     0
281
     0
  0
CLASS
  1
SPATIAL_INDEX
  2
AcDbSpatialIndex
  3
AutoCAD 2000
 90
        0
280
     0
281
     0
  0
CLASS
  1
OBJECT_PTR
  2
CAseDLPNTableRecord
  3
"ASE-LPNTableRecord"
 90
        1
280
     0
281
     0
  0
CLASS
  1
LAYOUT
  2
AcDbLayout
  3
AutoCAD 2000
 90
        0
280
     0
281
     0
  0
CLASS
  1
PLOTSETTINGS
  2
AcDbPlotSettings
  3
AutoCAD 2000
 90
        0
280
     0
281
     0
  0
CLASS
  1
ACDBDICTIONARYWDFLT
  2
AcDbDictionaryWithDefault
  3
AutoCAD 2000
 90
        0
280
     0
281
     0
  0
CLASS
  1
ACDBPLACEHOLDER
  2
AcDbPlaceHolder
  3
AutoCAD 2000
 90
        0
280
     0
281
     0
  0
CLASS
  1
VBA_PROJECT
  2
AcDbVbaProject
  3
acadvba
 90
        0
280
     0
281
     0
  0
CLASS
  1
WIPEOUT
  2
AcDbWipeout
  3
WipeOut|AutoCAD Express Tool|expresstools@autodesk.com
 90
      127
280
     0
281
     1
  0
CLASS
  1
WIPEOUTVARIABLES
  2
AcDbWipeoutVariables
  3
WipeOut|AutoCAD Express Tool|expresstools@autodesk.com
 90
        0
280
     0
281
     0
  0
CLASS
  1
RTEXT
  2
RText
  3
RText|AutoCAD Express Tool|expresstools@autodesk.com
 90
        0
280
     0
281
     1
  0
CLASS
  1
ARCALIGNEDTEXT
  2
AcDbArcAlignedText
  3
ATEXT|AutoCAD Express Tool|expresstools@autodesk.com
 90
        0
280
     0
281
     1
  0
ENDSEC
  0
SECTION
  2
TABLES
  0
TABLE
  2
VPORT
  5
7
100
AcDbSymbolTable
 70
     1
  0
VPORT
  5
15
100
AcDbSymbolTableRecord
100
AcDbViewportTableRecord
  2
*ACTIVE
 70
     0
 10
0.0
 20
0.0
 11
1.0
 21
1.0
 12
6.591288
 22
4.579184
 13
0.0
 23
0.0
 14
1.0
 24
1.0
 15
0.0
 25
0.0
 16
0.0
 26
0.0
 36
1.0
 17
0.0
 27
0.0
 37
0.0
 40
9.158369
 41
0.688564
 42
50.0
 43
0.0
 44
0.0
 50
0.0
 51
0.0
 71
     0
 72
   100
 73
     1
 74
     1
 75
     0
 76
     0
 77
     0
 78
     0
281
     0
 65
     0
110
0.0
120
0.0
130
0.0
111
1.0
121
0.0
131
0.0
112
0.0
122
1.0
132
0.0
345
0
346
0
 79
     0
146
0.0
  0
ENDTAB
  0
TABLE
  2
LTYPE
  5
4
100
AcDbSymbolTable
 70
     5
  0
LTYPE
  5
11
100
AcDbSymbolTableRecord
100
AcDbLinetypeTableRecord
  2
ByBlock
 70
    64
  3

 72
    65
 73
     0
 40
0.0
  0
LTYPE
  5
12
100
AcDbSymbolTableRecord
100
AcDbLinetypeTableRecord
  2
ByLayer
 70
    64
  3

 72
    65
 73
     0
 40
0.0
  0
LTYPE
  5
13
100
AcDbSymbolTableRecord
100
AcDbLinetypeTableRecord
  2
Continuous
 70
    64
  3
Solid line
 72
    65
 73
     0
 40
0.0
  0
LTYPE
  5
24
100
AcDbSymbolTableRecord
100
AcDbLinetypeTableRecord
  2
DASHDOT
 70
     0
  3
 __ . __ . __ . __ . __ . __ . __ . 
 72
    65
 73
     4
 40
18.5
 49
12.0
 74
     0
 49
-3.0
 74
     0
 49
0.5
 74
     0
 49
-3.0
 74
     0
  0
LTYPE
  5
25
100
AcDbSymbolTableRecord
100
AcDbLinetypeTableRecord
  2
DASHSPACE
 70
     0
  3
__    __    __    __    __   
 72
    65
 73
     2
 40
30.0
 49
12.0
 74
     0
 49
-18.0
 74
     0
  0
ENDTAB
  0
TABLE
  2
LAYER
  5
2
100
AcDbSymbolTable
 70
     1
  0
LAYER
  5
14
100
AcDbSymbolTableRecord
100
AcDbLayerTableRecord
  2
0
 70
     0
 62
     7
  6
Continuous
290
     1
370
    13
390
1D
  0
ENDTAB
  0
TABLE
  2
STYLE
  5
3
100
AcDbSymbolTable
 70
     2
  0
STYLE
  5
17
100
AcDbSymbolTableRecord
100
AcDbTextStyleTableRecord
  2
STANDARD
 70
     0
 40
0.0
 41
1.0
 50
0.0
 71
     0
 42
0.0
  3
isocp.shx
  4

  0
STYLE
  5
26
100
AcDbSymbolTableRecord
100
AcDbTextStyleTableRecord
  2
GDT
 70
     0
 40
0.0
 41
1.0
 50
0.0
 71
     0
 42
0.0
  3
gdt.shx
  4

  0
ENDTAB
  0
TABLE
  2
VIEW
  5
5
100
AcDbSymbolTable
 70
     0
  0
ENDTAB
  0
TABLE
  2
UCS
  5
6
100
AcDbSymbolTable
 70
     0
  0
ENDTAB
  0
TABLE
  2
APPID
  5
8
100
AcDbSymbolTable
 70
     1
  0
APPID
  5
16
100
AcDbSymbolTableRecord
100
AcDbRegAppTableRecord
  2
ACAD
 70
     0
  0
ENDTAB
  0
TABLE
  2
DIMSTYLE
  5
9
100
AcDbSymbolTable
 70
     1
100
AcDbDimStyleTable
 71
     0
  0
DIMSTYLE
105
18
100
AcDbSymbolTableRecord
100
AcDbDimStyleTableRecord
  2
STANDARD
 70
     0
  3

  4

 40
1.0
 41
2.5
 42
0.625
 43
3.75
 44
1.25
 45
0.0
 46
0.0
 47
0.0
 48
0.0
 71
     0
 72
     0
 73
     0
 74
     0
 75
     0
 76
     0
 77
     1
 78
     8
 79
     0
140
2.5
141
2.5
142
0.0
143
0.03937
144
1.0
145
0.0
146
1.0
147
0.625
148
0.0
170
     0
171
     3
172
     1
173
     0
174
     0
175
     0
176
     0
177
     0
178
     0
179
     0
271
     2
272
     2
273
     2
274
     3
275
     0
276
     0
277
     2
278
    44
279
     0
280
     0
281
     0
282
     0
283
     0
284
     8
285
     0
286
     0
288
     0
289
     0
340
0
341
0
342
0
343
0
344
0
371
    -2
372
    -2
  0
ENDTAB
  0
TABLE
  2
BLOCK_RECORD
  5
1
100
AcDbSymbolTable
 70
    36
  0
BLOCK_RECORD
  5
A
100
AcDbSymbolTableRecord
100
AcDbBlockTableRecord
  2
*MODEL_SPACE
340
20
  0
BLOCK_RECORD
  5
B
100
AcDbSymbolTableRecord
100
AcDbBlockTableRecord
  2
*PAPER_SPACE
340
21
  0
BLOCK_RECORD
  5
78
100
AcDbSymbolTableRecord
100
AcDbBlockTableRecord
  2
BLOCK34
340
0
102
{BLKREFS
331
1EB
102
}
  0
BLOCK_RECORD
  5
79
100
AcDbSymbolTableRecord
100
AcDbBlockTableRecord
  2
BLOCK35
340
0
102
{BLKREFS
331
1EC
102
}
  0
BLOCK_RECORD
  5
7A
100
AcDbSymbolTableRecord
100
AcDbBlockTableRecord
  2
BLOCK36
340
0
102
{BLKREFS
331
1ED
102
}
  0
BLOCK_RECORD
  5
7B
100
AcDbSymbolTableRecord
100
AcDbBlockTableRecord
  2
BLOCK37
340
0
102
{BLKREFS
331
1EE
102
}
  0
BLOCK_RECORD
  5
7C
100
AcDbSymbolTableRecord
100
AcDbBlockTableRecord
  2
BLOCK38
340
0
102
{BLKREFS
331
1EF
102
}
  0
BLOCK_RECORD
  5
7D
100
AcDbSymbolTableRecord
100
AcDbBlockTableRecord
  2
BLOCK39
340
0
102
{BLKREFS
331
1F0
102
}
  0
BLOCK_RECORD
  5
7E
100
AcDbSymbolTableRecord
100
AcDbBlockTableRecord
  2
BLOCK40
340
0
102
{BLKREFS
331
1F1
102
}
  0
BLOCK_RECORD
  5
7F
100
AcDbSymbolTableRecord
100
AcDbBlockTableRecord
  2
BLOCK41
340
0
102
{BLKREFS
331
1F2
102
}
  0
BLOCK_RECORD
  5
80
100
AcDbSymbolTableRecord
100
AcDbBlockTableRecord
  2
BLOCK42
340
0
102
{BLKREFS
331
1F3
102
}
  0
BLOCK_RECORD
  5
81
100
AcDbSymbolTableRecord
100
AcDbBlockTableRecord
  2
BLOCK43
340
0
102
{BLKREFS
331
1F4
102
}
  0
BLOCK_RECORD
  5
82
100
AcDbSymbolTableRecord
100
AcDbBlockTableRecord
  2
BLOCK44
340
0
102
{BLKREFS
331
1F5
102
}
  0
BLOCK_RECORD
  5
83
100
AcDbSymbolTableRecord
100
AcDbBlockTableRecord
  2
BLOCK45
340
0
102
{BLKREFS
331
1F6
102
}
  0
BLOCK_RECORD
  5
84
100
AcDbSymbolTableRecord
100
AcDbBlockTableRecord
  2
BLOCK46
340
0
102
{BLKREFS
331
1F7
102
}
  0
BLOCK_RECORD
  5
85
100
AcDbSymbolTableRecord
100
AcDbBlockTableRecord
  2
BLOCK47
340
0
102
{BLKREFS
331
1F8
102
}
  0
BLOCK_RECORD
  5
86
100
AcDbSymbolTableRecord
100
AcDbBlockTableRecord
  2
BLOCK48
340
0
102
{BLKREFS
331
1F9
102
}
  0
BLOCK_RECORD
  5
87
100
AcDbSymbolTableRecord
100
AcDbBlockTableRecord
  2
BLOCK49
340
0
102
{BLKREFS
331
1FA
102
}
  0
BLOCK_RECORD
  5
88
100
AcDbSymbolTableRecord
100
AcDbBlockTableRecord
  2
BLOCK50
340
0
102
{BLKREFS
331
1FB
102
}
  0
BLOCK_RECORD
  5
89
100
AcDbSymbolTableRecord
100
AcDbBlockTableRecord
  2
BLOCK51
340
0
102
{BLKREFS
331
1FC
102
}
  0
BLOCK_RECORD
  5
8A
100
AcDbSymbolTableRecord
100
AcDbBlockTableRecord
  2
BLOCK52
340
0
102
{BLKREFS
331
1FD
102
}
  0
BLOCK_RECORD
  5
8B
100
AcDbSymbolTableRecord
100
AcDbBlockTableRecord
  2
BLOCK53
340
0
102
{BLKREFS
331
1FE
102
}
  0
BLOCK_RECORD
  5
8C
100
AcDbSymbolTableRecord
100
AcDbBlockTableRecord
  2
BLOCK54
340
0
102
{BLKREFS
331
1FF
102
}
  0
BLOCK_RECORD
  5
8D
100
AcDbSymbolTableRecord
100
AcDbBlockTableRecord
  2
BLOCK55
340
0
102
{BLKREFS
331
200
102
}
  0
BLOCK_RECORD
  5
8E
100
AcDbSymbolTableRecord
100
AcDbBlockTableRecord
  2
BLOCK56
340
0
102
{BLKREFS
331
201
102
}
  0
BLOCK_RECORD
  5
8F
100
AcDbSymbolTableRecord
100
AcDbBlockTableRecord
  2
BLOCK57
340
0
102
{BLKREFS
331
202
102
}
  0
BLOCK_RECORD
  5
90
100
AcDbSymbolTableRecord
100
AcDbBlockTableRecord
  2
BLOCK58
340
0
102
{BLKREFS
331
203
102
}
  0
BLOCK_RECORD
  5
91
100
AcDbSymbolTableRecord
100
AcDbBlockTableRecord
  2
BLOCK59
340
0
102
{BLKREFS
331
204
102
}
  0
BLOCK_RECORD
  5
92
100
AcDbSymbolTableRecord
100
AcDbBlockTableRecord
  2
BLOCK60
340
0
102
{BLKREFS
331
205
102
}
  0
BLOCK_RECORD
  5
93
100
AcDbSymbolTableRecord
100
AcDbBlockTableRecord
  2
BLOCK61
340
0
102
{BLKREFS
331
206
102
}
  0
BLOCK_RECORD
  5
94
100
AcDbSymbolTableRecord
100
AcDbBlockTableRecord
  2
BLOCK62
340
0
102
{BLKREFS
331
207
102
}
  0
BLOCK_RECORD
  5
95
100
AcDbSymbolTableRecord
100
AcDbBlockTableRecord
  2
BLOCK63
340
0
102
{BLKREFS
331
208
102
}
  0
BLOCK_RECORD
  5
57
100
AcDbSymbolTableRecord
100
AcDbBlockTableRecord
  2
*D30
340
0
  0
BLOCK_RECORD
  5
59
100
AcDbSymbolTableRecord
100
AcDbBlockTableRecord
  2
*D31
340
0
  0
BLOCK_RECORD
  5
5B
100
AcDbSymbolTableRecord
100
AcDbBlockTableRecord
  2
*D32
340
0
  0
BLOCK_RECORD
  5
96
100
AcDbSymbolTableRecord
100
AcDbBlockTableRecord
  2
BLOCK64
340
0
102
{BLKREFS
331
209
102
}
  0
BLOCK_RECORD
  5
97
100
AcDbSymbolTableRecord
100
AcDbBlockTableRecord
  2
BLOCK65
340
0
102
{BLKREFS
331
20A
102
}
  0
BLOCK_RECORD
  5
98
100
AcDbSymbolTableRecord
100
AcDbBlockTableRecord
  2
BLOCK66
340
0
102
{BLKREFS
331
20B
102
}
  0
ENDTAB
  0
ENDSEC
  0
SECTION
  2
BLOCKS
  0
BLOCK
  5
D
100
AcDbEntity
  8
0
390
0
100
AcDbBlockBegin
  2
*MODEL_SPACE
 70
     0
 10
0.0
 20
0.0
 30
0.0
  3
*MODEL_SPACE
  1

  0
ENDBLK
  5
E
100
AcDbEntity
  8
0
390
0
100
AcDbBlockEnd
  0
BLOCK
  5
F
100
AcDbEntity
 67
     1
  8
0
390
0
100
AcDbBlockBegin
  2
*PAPER_SPACE
 70
     0
 10
0.0
 20
0.0
 30
0.0
  3
*PAPER_SPACE
  1

  0
ENDBLK
  5
10
100
AcDbEntity
 67
     1
  8
0
390
0
100
AcDbBlockEnd
  0
BLOCK
  5
99
100
AcDbEntity
  8
0
370
     0
390
0
100
AcDbBlockBegin
  2
BLOCK34
 70
     0
 10
0.0
 20
0.0
 30
0.0
  3
BLOCK34
  1

  0
TEXT
  5
9A
100
AcDbEntity
  8
0
370
    13
390
0
 62
     7
100
AcDbText
 10
41.948341
 20
287.874939
 30
0.0
 40
2.0
  1
1
 41
0.75
 72
     5
 11
43.058216
 21
287.874939
 31
0.0
100
AcDbText
  0
ENDBLK
  5
9B
100
AcDbEntity
  8
0
390
0
100
AcDbBlockEnd
  0
BLOCK
  5
9C
100
AcDbEntity
  8
0
370
     0
390
0
100
AcDbBlockBegin
  2
BLOCK35
 70
     0
 10
0.0
 20
0.0
 30
0.0
  3
BLOCK35
  1

  0
TEXT
  5
9D
100
AcDbEntity
  8
0
370
    13
390
0
 62
     7
100
AcDbText
 10
86.948349
 20
287.874939
 30
0.0
 40
2.0
  1
2
 41
0.75
 72
     5
 11
88.058228
 21
287.874939
 31
0.0
100
AcDbText
  0
ENDBLK
  5
9E
100
AcDbEntity
  8
0
390
0
100
AcDbBlockEnd
  0
BLOCK
  5
9F
100
AcDbEntity
  8
0
370
     0
390
0
100
AcDbBlockBegin
  2
BLOCK36
 70
     0
 10
0.0
 20
0.0
 30
0.0
  3
BLOCK36
  1

  0
TEXT
  5
A0
100
AcDbEntity
  8
0
370
    13
390
0
 62
     7
100
AcDbText
 10
131.948349
 20
287.874939
 30
0.0
 40
2.0
  1
3
 41
0.75
 72
     5
 11
133.058228
 21
287.874939
 31
0.0
100
AcDbText
  0
ENDBLK
  5
A1
100
AcDbEntity
  8
0
390
0
100
AcDbBlockEnd
  0
BLOCK
  5
A2
100
AcDbEntity
  8
0
370
     0
390
0
100
AcDbBlockBegin
  2
BLOCK37
 70
     0
 10
0.0
 20
0.0
 30
0.0
  3
BLOCK37
  1

  0
TEXT
  5
A3
100
AcDbEntity
  8
0
370
    13
390
0
 62
     7
100
AcDbText
 10
176.948349
 20
287.874939
 30
0.0
 40
2.0
  1
4
 41
0.75
 72
     5
 11
178.058228
 21
287.874939
 31
0.0
100
AcDbText
  0
ENDBLK
  5
A4
100
AcDbEntity
  8
0
390
0
100
AcDbBlockEnd
  0
BLOCK
  5
A5
100
AcDbEntity
  8
0
370
     0
390
0
100
AcDbBlockBegin
  2
BLOCK38
 70
     0
 10
0.0
 20
0.0
 30
0.0
  3
BLOCK38
  1

  0
TEXT
  5
A6
100
AcDbEntity
  8
0
370
    13
390
0
 62
     7
100
AcDbText
 10
203.092789
 20
263.433167
 30
0.0
 40
2.0
  1
A
 50
90.000003
 41
0.75
 72
     5
 11
203.092789
 21
264.718292
 31
0.0
100
AcDbText
  0
ENDBLK
  5
A7
100
AcDbEntity
  8
0
390
0
100
AcDbBlockEnd
  0
BLOCK
  5
A8
100
AcDbEntity
  8
0
370
     0
390
0
100
AcDbBlockBegin
  2
BLOCK39
 70
     0
 10
0.0
 20
0.0
 30
0.0
  3
BLOCK39
  1

  0
TEXT
  5
A9
100
AcDbEntity
  8
0
370
    13
390
0
 62
     7
100
AcDbText
 10
203.092789
 20
217.241501
 30
0.0
 40
2.0
  1
B
 50
90.000003
 41
0.75
 72
     5
 11
203.092789
 21
218.576691
 31
0.0
100
AcDbText
  0
ENDBLK
  5
AA
100
AcDbEntity
  8
0
390
0
100
AcDbBlockEnd
  0
BLOCK
  5
AB
100
AcDbEntity
  8
0
370
     0
390
0
100
AcDbBlockBegin
  2
BLOCK40
 70
     0
 10
0.0
 20
0.0
 30
0.0
  3
BLOCK40
  1

  0
TEXT
  5
AC
100
AcDbEntity
  8
0
370
    13
390
0
 62
     7
100
AcDbText
 10
203.092789
 20
171.016418
 30
0.0
 40
2.0
  1
C
 50
90.000003
 41
0.75
 72
     5
 11
203.092789
 21
172.46843
 31
0.0
100
AcDbText
  0
ENDBLK
  5
AD
100
AcDbEntity
  8
0
390
0
100
AcDbBlockEnd
  0
BLOCK
  5
AE
100
AcDbEntity
  8
0
370
     0
390
0
100
AcDbBlockBegin
  2
BLOCK41
 70
     0
 10
0.0
 20
0.0
 30
0.0
  3
BLOCK41
  1

  0
TEXT
  5
AF
100
AcDbEntity
  8
0
370
    13
390
0
 62
     7
100
AcDbText
 10
203.092789
 20
124.848709
 30
0.0
 40
2.0
  1
D
 50
90.000003
 41
0.75
 72
     5
 11
203.092789
 21
126.302811
 31
0.0
100
AcDbText
  0
ENDBLK
  5
B0
100
AcDbEntity
  8
0
390
0
100
AcDbBlockEnd
  0
BLOCK
  5
B1
100
AcDbEntity
  8
0
370
     0
390
0
100
AcDbBlockBegin
  2
BLOCK42
 70
     0
 10
0.0
 20
0.0
 30
0.0
  3
BLOCK42
  1

  0
TEXT
  5
B2
100
AcDbEntity
  8
0
370
    13
390
0
 62
     7
100
AcDbText
 10
203.092789
 20
78.778008
 30
0.0
 40
2.0
  1
E
 50
90.000003
 41
0.75
 72
     5
 11
203.092789
 21
80.040176
 31
0.0
100
AcDbText
  0
ENDBLK
  5
B3
100
AcDbEntity
  8
0
390
0
100
AcDbBlockEnd
  0
BLOCK
  5
B4
100
AcDbEntity
  8
0
370
     0
390
0
100
AcDbBlockBegin
  2
BLOCK43
 70
     0
 10
0.0
 20
0.0
 30
0.0
  3
BLOCK43
  1

  0
TEXT
  5
B5
100
AcDbEntity
  8
0
370
    13
390
0
 62
     7
100
AcDbText
 10
203.092789
 20
32.649933
 30
0.0
 40
2.0
  1
F
 50
90.000003
 41
0.75
 72
     5
 11
203.092789
 21
33.834911
 31
0.0
100
AcDbText
  0
ENDBLK
  5
B6
100
AcDbEntity
  8
0
390
0
100
AcDbBlockEnd
  0
BLOCK
  5
B7
100
AcDbEntity
  8
0
370
     0
390
0
100
AcDbBlockBegin
  2
BLOCK44
 70
     0
 10
0.0
 20
0.0
 30
0.0
  3
BLOCK44
  1

  0
TEXT
  5
B8
100
AcDbEntity
  8
0
370
    13
390
0
 62
     7
100
AcDbText
 10
18.923407
 20
32.618019
 30
0.0
 40
2.0
  1
F
 50
90.000003
 41
0.75
 72
     5
 11
18.923407
 21
33.802998
 31
0.0
100
AcDbText
  0
ENDBLK
  5
B9
100
AcDbEntity
  8
0
390
0
100
AcDbBlockEnd
  0
BLOCK
  5
BA
100
AcDbEntity
  8
0
370
     0
390
0
100
AcDbBlockBegin
  2
BLOCK45
 70
     0
 10
0.0
 20
0.0
 30
0.0
  3
BLOCK45
  1

  0
TEXT
  5
BB
100
AcDbEntity
  8
0
370
    13
390
0
 62
     7
100
AcDbText
 10
19.092787
 20
78.778
 30
0.0
 40
2.0
  1
E
 50
90.000003
 41
0.75
 72
     5
 11
19.092787
 21
80.040169
 31
0.0
100
AcDbText
  0
ENDBLK
  5
BC
100
AcDbEntity
  8
0
390
0
100
AcDbBlockEnd
  0
BLOCK
  5
BD
100
AcDbEntity
  8
0
370
     0
390
0
100
AcDbBlockBegin
  2
BLOCK46
 70
     0
 10
0.0
 20
0.0
 30
0.0
  3
BLOCK46
  1

  0
TEXT
  5
BE
100
AcDbEntity
  8
0
370
    13
390
0
 62
     7
100
AcDbText
 10
19.092787
 20
124.848709
 30
0.0
 40
2.0
  1
D
 50
90.000003
 41
0.75
 72
     5
 11
19.092787
 21
126.302811
 31
0.0
100
AcDbText
  0
ENDBLK
  5
BF
100
AcDbEntity
  8
0
390
0
100
AcDbBlockEnd
  0
BLOCK
  5
C0
100
AcDbEntity
  8
0
370
     0
390
0
100
AcDbBlockBegin
  2
BLOCK47
 70
     0
 10
0.0
 20
0.0
 30
0.0
  3
BLOCK47
  1

  0
TEXT
  5
C1
100
AcDbEntity
  8
0
370
    13
390
0
 62
     7
100
AcDbText
 10
19.092787
 20
171.016418
 30
0.0
 40
2.0
  1
C
 50
90.000003
 41
0.75
 72
     5
 11
19.092787
 21
172.46843
 31
0.0
100
AcDbText
  0
ENDBLK
  5
C2
100
AcDbEntity
  8
0
390
0
100
AcDbBlockEnd
  0
BLOCK
  5
C3
100
AcDbEntity
  8
0
370
     0
390
0
100
AcDbBlockBegin
  2
BLOCK48
 70
     0
 10
0.0
 20
0.0
 30
0.0
  3
BLOCK48
  1

  0
TEXT
  5
C4
100
AcDbEntity
  8
0
370
    13
390
0
 62
     7
100
AcDbText
 10
19.092787
 20
217.241486
 30
0.0
 40
2.0
  1
B
 50
90.000003
 41
0.75
 72
     5
 11
19.092787
 21
218.576675
 31
0.0
100
AcDbText
  0
ENDBLK
  5
C5
100
AcDbEntity
  8
0
390
0
100
AcDbBlockEnd
  0
BLOCK
  5
C6
100
AcDbEntity
  8
0
370
     0
390
0
100
AcDbBlockBegin
  2
BLOCK49
 70
     0
 10
0.0
 20
0.0
 30
0.0
  3
BLOCK49
  1

  0
TEXT
  5
C7
100
AcDbEntity
  8
0
370
    13
390
0
 62
     7
100
AcDbText
 10
19.092789
 20
263.433197
 30
0.0
 40
2.0
  1
A
 50
90.000003
 41
0.75
 72
     5
 11
19.092789
 21
264.718323
 31
0.0
100
AcDbText
  0
ENDBLK
  5
C8
100
AcDbEntity
  8
0
390
0
100
AcDbBlockEnd
  0
BLOCK
  5
C9
100
AcDbEntity
  8
0
370
     0
390
0
100
AcDbBlockBegin
  2
BLOCK50
 70
     0
 10
0.0
 20
0.0
 30
0.0
  3
BLOCK50
  1

  0
TEXT
  5
CA
100
AcDbEntity
  8
0
370
    13
390
0
 62
     7
100
AcDbText
 10
41.948341
 20
6.874945
 30
0.0
 40
2.0
  1
1
 41
0.75
 72
     5
 11
43.058216
 21
6.874945
 31
0.0
100
AcDbText
  0
ENDBLK
  5
CB
100
AcDbEntity
  8
0
390
0
100
AcDbBlockEnd
  0
BLOCK
  5
CC
100
AcDbEntity
  8
0
370
     0
390
0
100
AcDbBlockBegin
  2
BLOCK51
 70
     0
 10
0.0
 20
0.0
 30
0.0
  3
BLOCK51
  1

  0
TEXT
  5
CD
100
AcDbEntity
  8
0
370
    13
390
0
 62
     7
100
AcDbText
 10
86.948349
 20
6.874945
 30
0.0
 40
2.0
  1
2
 41
0.75
 72
     5
 11
88.058228
 21
6.874945
 31
0.0
100
AcDbText
  0
ENDBLK
  5
CE
100
AcDbEntity
  8
0
390
0
100
AcDbBlockEnd
  0
BLOCK
  5
CF
100
AcDbEntity
  8
0
370
     0
390
0
100
AcDbBlockBegin
  2
BLOCK52
 70
     0
 10
0.0
 20
0.0
 30
0.0
  3
BLOCK52
  1

  0
TEXT
  5
D0
100
AcDbEntity
  8
0
370
    13
390
0
 62
     7
100
AcDbText
 10
131.948349
 20
6.874945
 30
0.0
 40
2.0
  1
3
 41
0.75
 72
     5
 11
133.058228
 21
6.874945
 31
0.0
100
AcDbText
  0
ENDBLK
  5
D1
100
AcDbEntity
  8
0
390
0
100
AcDbBlockEnd
  0
BLOCK
  5
D2
100
AcDbEntity
  8
0
370
     0
390
0
100
AcDbBlockBegin
  2
BLOCK53
 70
     0
 10
0.0
 20
0.0
 30
0.0
  3
BLOCK53
  1

  0
TEXT
  5
D3
100
AcDbEntity
  8
0
370
    13
390
0
 62
     7
100
AcDbText
 10
176.948349
 20
6.874945
 30
0.0
 40
2.0
  1
4
 41
0.75
 72
     5
 11
178.058228
 21
6.874945
 31
0.0
100
AcDbText
  0
ENDBLK
  5
D4
100
AcDbEntity
  8
0
390
0
100
AcDbBlockEnd
  0
BLOCK
  5
D5
100
AcDbEntity
  8
0
370
     0
390
0
100
AcDbBlockBegin
  2
BLOCK54
 70
     0
 10
0.0
 20
0.0
 30
0.0
  3
BLOCK54
  1

  0
TEXT
  5
D6
100
AcDbEntity
  8
0
370
    13
390
0
 62
     7
100
AcDbText
 10
200.262695
 20
6.931882
 30
0.0
 40
2.2
  1
A4
 41
0.8
 72
     5
 11
203.374161
 21
6.931882
 31
0.0
100
AcDbText
  0
ENDBLK
  5
D7
100
AcDbEntity
  8
0
390
0
100
AcDbBlockEnd
  0
BLOCK
  5
D8
100
AcDbEntity
  8
0
370
     0
390
0
100
AcDbBlockBegin
  2
BLOCK55
 70
     0
 10
0.0
 20
0.0
 30
0.0
  3
BLOCK55
  1

  0
TEXT
  5
D9
100
AcDbEntity
  8
0
370
    13
390
0
 62
     7
100
AcDbText
 10
161.453674
 20
20.734997
 30
0.0
 40
7.0
  1
559003
 41
0.7
 72
     5
 11
186.956268
 21
20.734997
 31
0.0
100
AcDbText
  0
ENDBLK
  5
DA
100
AcDbEntity
  8
0
390
0
100
AcDbBlockEnd
  0
BLOCK
  5
DB
100
AcDbEntity
  8
0
370
     0
390
0
100
AcDbBlockBegin
  2
BLOCK56
 70
     0
 10
0.0
 20
0.0
 30
0.0
  3
BLOCK56
  1

  0
TEXT
  5
DC
100
AcDbEntity
  8
0
370
    13
390
0
 62
     7
100
AcDbText
 10
79.762917
 20
21.74147
 30
0.0
 40
3.5
  1
Pozzetto con magneti per sepcoll
 41
0.6
 72
     5
 11
138.05455
 21
21.74147
 31
0.0
100
AcDbText
  0
ENDBLK
  5
DD
100
AcDbEntity
  8
0
390
0
100
AcDbBlockEnd
  0
BLOCK
  5
DE
100
AcDbEntity
  8
0
370
     0
390
0
100
AcDbBlockBegin
  2
BLOCK57
 70
     0
 10
0.0
 20
0.0
 30
0.0
  3
BLOCK57
  1

  0
TEXT
  5
DF
100
AcDbEntity
  8
0
370
    13
390
0
 62
     7
100
AcDbText
 10
71.442711
 20
29.673382
 30
0.0
 40
1.2
  1
DESCRIPTION
 41
0.75
 72
     5
 11
82.356201
 21
29.673382
 31
0.0
100
AcDbText
  0
ENDBLK
  5
E0
100
AcDbEntity
  8
0
390
0
100
AcDbBlockEnd
  0
BLOCK
  5
E1
100
AcDbEntity
  8
0
370
     0
390
0
100
AcDbBlockBegin
  2
BLOCK58
 70
     0
 10
0.0
 20
0.0
 30
0.0
  3
BLOCK58
  1

  0
TEXT
  5
E2
100
AcDbEntity
  8
0
370
    13
390
0
 62
     7
100
AcDbText
 10
148.790222
 20
29.167343
 30
0.0
 40
1.2
  1
CODE
 41
0.75
 72
     5
 11
153.138763
 21
29.167343
 31
0.0
100
AcDbText
  0
ENDBLK
  5
E3
100
AcDbEntity
  8
0
390
0
100
AcDbBlockEnd
  0
BLOCK
  5
E4
100
AcDbEntity
  8
0
370
     0
390
0
100
AcDbBlockBegin
  2
BLOCK59
 70
     0
 10
0.0
 20
0.0
 30
0.0
  3
BLOCK59
  1

  0
TEXT
  5
E5
100
AcDbEntity
  8
0
370
    13
390
0
 62
     7
100
AcDbText
 10
71.47937
 20
14.516841
 30
0.0
 40
1.1
  1
documento gestito da sistema informatico: se distribuito esternamente, l'aggiornamento e la validit\U+00E0 dello stesso devono essere verificati ad ogni utilizzo. Sono vietate le modifiche manuali.
 50
0.000005
 41
0.7
 72
     5
 11
199.052933
 21
14.516852
 31
0.0
100
AcDbText
  0
ENDBLK
  5
E6
100
AcDbEntity
  8
0
390
0
100
AcDbBlockEnd
  0
BLOCK
  5
E7
100
AcDbEntity
  8
0
370
     0
390
0
100
AcDbBlockBegin
  2
BLOCK60
 70
     0
 10
0.0
 20
0.0
 30
0.0
  3
BLOCK60
  1

  0
TEXT
  5
E8
100
AcDbEntity
  8
0
370
    13
390
0
 62
     7
100
AcDbText
 10
71.714943
 20
11.06699
 30
0.0
 40
1.2
  1
Attention, document managed by software system: in case of external distribution, its update and validity must be checked at any need. Hand changes are forbidden.
 50
0.000001
 41
0.731
 72
     5
 11
183.614563
 21
11.066993
 31
0.0
100
AcDbText
  0
ENDBLK
  5
E9
100
AcDbEntity
  8
0
390
0
100
AcDbBlockEnd
  0
BLOCK
  5
EA
100
AcDbEntity
  8
0
370
     0
390
0
100
AcDbBlockBegin
  2
BLOCK61
 70
     0
 10
0.0
 20
0.0
 30
0.0
  3
BLOCK61
  1

  0
TEXT
  5
EB
100
AcDbEntity
  8
0
370
    13
390
0
 62
     7
100
AcDbText
 10
71.463943
 20
16.193491
 30
0.0
 40
1.1
  1
Questo documento non \U+00E8 da ritenersi impegnativo. Ci riserviamo il diritto di modificare i nostri prodotti, di apportare miglioramenti tecnici e di svilupparli ulteriormente. Attenzione,
 41
0.7
 72
     5
 11
195.029968
 21
16.193491
 31
0.0
100
AcDbText
  0
ENDBLK
  5
EC
100
AcDbEntity
  8
0
390
0
100
AcDbBlockEnd
  0
BLOCK
  5
ED
100
AcDbEntity
  8
0
370
     0
390
0
100
AcDbBlockBegin
  2
BLOCK62
 70
     0
 10
0.0
 20
0.0
 30
0.0
  3
BLOCK62
  1

  0
TEXT
  5
EE
100
AcDbEntity
  8
0
370
    13
390
0
 62
     7
100
AcDbText
 10
71.590965
 20
12.673855
 30
0.0
 40
1.2
  1
This document can not be considered binding. We reserve the right to change our products, to produce technical improvements and to further develop them.
 41
0.731
 72
     5
 11
177.492218
 21
12.673855
 31
0.0
100
AcDbText
  0
ENDBLK
  5
EF
100
AcDbEntity
  8
0
390
0
100
AcDbBlockEnd
  0
BLOCK
  5
F0
100
AcDbEntity
  8
0
370
     0
390
0
100
AcDbBlockBegin
  2
BLOCK63
 70
     0
 10
0.0
 20
0.0
 30
0.0
  3
BLOCK63
  1

  0
TEXT
  5
F1
100
AcDbEntity
  8
0
370
    13
390
0
 62
     7
100
AcDbText
 10
26.727606
 20
53.270893
 30
0.0
 40
4.0
  1
Guaina
 41
0.6
 72
     5
 11
39.218674
 21
53.270893
 31
0.0
100
AcDbText
  0
TEXT
  5
F2
100
AcDbEntity
  8
0
370
    13
390
0
 62
     7
100
AcDbText
 10
17.359306
 20
46.360229
 30
0.0
 40
4.0
  1
termoretraibile
 41
0.6
 72
     5
 11
48.586971
 21
46.360229
 31
0.0
100
AcDbText
  0
POLYLINE
  5
F3
100
AcDbEntity
  8
0
370
    13
390
0
 62
     7
100
AcDb2dPolyline
 66
     1
 10
0.0
 20
0.0
 30
0.0
 71
     3
  0
VERTEX
  5
F4
100
AcDbEntity
  8
0
370
     0
390
0
100
AcDbVertex
100
AcDb2dVertex
 10
7.267844
 20
48.095612
 30
0.0
  0
VERTEX
  5
F5
100
AcDbEntity
  8
0
370
     0
390
0
100
AcDbVertex
100
AcDb2dVertex
 10
14.0
 20
45.0
 30
0.0
  0
VERTEX
  5
F6
100
AcDbEntity
  8
0
370
     0
390
0
100
AcDbVertex
100
AcDb2dVertex
 10
48.946278
 20
45.0
 30
0.0
  0
SEQEND
  5
F7
100
AcDbEntity
  8
0
370
     0
390
0
  0
SOLID
  5
F8
100
AcDbEntity
  8
0
370
    13
390
0
 62
     7
100
AcDbTrace
 10
7.517844
 20
48.095612
 30
0.0
 11
7.48435
 21
48.220612
 31
0.0
 12
7.267844
 22
48.345612
 32
0.0
 13
7.392844
 23
48.312119
 33
0.0
  0
SOLID
  5
F9
100
AcDbEntity
  8
0
370
    13
390
0
 62
     7
100
AcDbTrace
 10
7.517844
 20
48.095612
 30
0.0
 11
7.267844
 21
48.345612
 31
0.0
 12
7.051338
 22
48.220612
 32
0.0
 13
7.142844
 23
48.312119
 33
0.0
  0
SOLID
  5
FA
100
AcDbEntity
  8
0
370
    13
390
0
 62
     7
100
AcDbTrace
 10
7.517844
 20
48.095612
 30
0.0
 11
7.051338
 21
48.220612
 31
0.0
 12
7.051338
 22
47.970612
 32
0.0
 13
7.017844
 23
48.095612
 33
0.0
  0
SOLID
  5
FB
100
AcDbEntity
  8
0
370
    13
390
0
 62
     7
100
AcDbTrace
 10
7.517844
 20
48.095612
 30
0.0
 11
7.051338
 21
47.970612
 31
0.0
 12
7.267844
 22
47.845612
 32
0.0
 13
7.142844
 23
47.879105
 33
0.0
  0
SOLID
  5
FC
100
AcDbEntity
  8
0
370
    13
390
0
 62
     7
100
AcDbTrace
 10
7.517844
 20
48.095612
 30
0.0
 11
7.267844
 21
47.845612
 31
0.0
 12
7.48435
 22
47.970612
 32
0.0
 13
7.392844
 23
47.879105
 33
0.0
  0
SOLID
  5
FD
100
AcDbEntity
  8
0
370
    13
390
0
 62
     7
100
AcDbTrace
 10
7.517844
 20
48.095612
 30
0.0
 11
7.48435
 21
47.970612
 31
0.0
 12
7.517844
 22
48.095612
 32
0.0
 13
7.517844
 23
48.095612
 33
0.0
  0
ENDBLK
  5
FE
100
AcDbEntity
  8
0
390
0
100
AcDbBlockEnd
  0
BLOCK
  5
FF
100
AcDbEntity
  8
0
370
     0
390
0
100
AcDbBlockBegin
  2
*D30
 70
    65
 10
0.0
 20
0.0
 30
0.0
  3
*D30
  1

  0
SOLID
  5
100
100
AcDbEntity
  8
0
370
    13
390
0
 62
     7
100
AcDbTrace
 10
93.797169
 20
221.640253
 30
0.0
 11
91.306682
 21
221.422365
 31
0.0
 12
93.797169
 22
221.640253
 32
0.0
 13
93.797169
 23
221.204477
 33
0.0
  0
SOLID
  5
101
100
AcDbEntity
  8
0
370
    13
390
0
 62
     7
100
AcDbTrace
 10
123.816195
 20
221.204477
 30
0.0
 11
126.306682
 21
221.422365
 31
0.0
 12
123.816195
 22
221.204477
 32
0.0
 13
123.816195
 23
221.640253
 33
0.0
  0
TEXT
  5
102
100
AcDbEntity
  8
0
370
    13
390
0
 62
     7
100
AcDbText
 10
108.330299
 20
222.422365
 30
0.0
 40
3.0
  1
35
 41
0.6
 72
     5
 11
111.603066
 21
222.422365
 31
0.0
100
AcDbText
  0
TEXT
  5
103
100
AcDbEntity
  8
0
370
    13
390
0
 62
     7
100
AcDbText
 10
106.010299
 20
222.422365
 30
0.0
 40
3.0
  1
%%c
 41
0.6
 72
     5
 11
107.330299
 21
222.422365
 31
0.0
100
AcDbText
  0
LINE
  5
104
100
AcDbEntity
  8
0
370
    13
390
0
 62
     7
100
AcDbLine
 10
91.306682
 20
209.888742
 30
0.0
 11
91.306682
 21
222.422365
 31
0.0
210
0.0
220
0.0
230
1.0
  0
LINE
  5
105
100
AcDbEntity
  8
0
370
    13
390
0
 62
     7
100
AcDbLine
 10
126.306682
 20
209.888742
 30
0.0
 11
126.306682
 21
222.422365
 31
0.0
210
0.0
220
0.0
230
1.0
  0
LINE
  5
106
100
AcDbEntity
  8
0
370
    13
390
0
 62
     7
100
AcDbLine
 10
93.797169
 20
221.422365
 30
0.0
 11
123.816195
 21
221.422365
 31
0.0
210
0.0
220
0.0
230
1.0
  0
POLYLINE
  5
107
100
AcDbEntity
  8
0
370
    13
390
0
 62
     7
100
AcDb2dPolyline
 66
     1
 10
0.0
 20
0.0
 30
0.0
 70
     1
 71
     3
  0
VERTEX
  5
108
100
AcDbEntity
  8
0
370
     0
390
0
100
AcDbVertex
100
AcDb2dVertex
 10
93.797169
 20
221.640253
 30
0.0
  0
VERTEX
  5
109
100
AcDbEntity
  8
0
370
     0
390
0
100
AcDbVertex
100
AcDb2dVertex
 10
91.306682
 20
221.422365
 30
0.0
  0
VERTEX
  5
10A
100
AcDbEntity
  8
0
370
     0
390
0
100
AcDbVertex
100
AcDb2dVertex
 10
93.797169
 20
221.204477
 30
0.0
  0
SEQEND
  5
10B
100
AcDbEntity
  8
0
370
     0
390
0
  0
POLYLINE
  5
10C
100
AcDbEntity
  8
0
370
    13
390
0
 62
     7
100
AcDb2dPolyline
 66
     1
 10
0.0
 20
0.0
 30
0.0
 70
     1
 71
     3
  0
VERTEX
  5
10D
100
AcDbEntity
  8
0
370
     0
390
0
100
AcDbVertex
100
AcDb2dVertex
 10
123.816195
 20
221.204477
 30
0.0
  0
VERTEX
  5
10E
100
AcDbEntity
  8
0
370
     0
390
0
100
AcDbVertex
100
AcDb2dVertex
 10
126.306682
 20
221.422365
 30
0.0
  0
VERTEX
  5
10F
100
AcDbEntity
  8
0
370
     0
390
0
100
AcDbVertex
100
AcDb2dVertex
 10
123.816195
 20
221.640253
 30
0.0
  0
SEQEND
  5
110
100
AcDbEntity
  8
0
370
     0
390
0
  0
ENDBLK
  5
111
100
AcDbEntity
  8
0
390
0
100
AcDbBlockEnd
  0
BLOCK
  5
112
100
AcDbEntity
  8
0
370
     0
390
0
100
AcDbBlockBegin
  2
*D31
 70
    65
 10
0.0
 20
0.0
 30
0.0
  3
*D31
  1

  0
SOLID
  5
113
100
AcDbEntity
  8
0
370
    13
390
0
 62
     7
100
AcDbTrace
 10
113.584039
 20
87.216856
 30
0.0
 11
116.074526
 21
87.434746
 31
0.0
 12
113.584039
 22
87.216856
 32
0.0
 13
113.584039
 23
87.652635
 33
0.0
  0
SOLID
  5
114
100
AcDbEntity
  8
0
370
    13
390
0
 62
     7
100
AcDbTrace
 10
104.029325
 20
87.652635
 30
0.0
 11
101.538838
 21
87.434746
 31
0.0
 12
104.029325
 22
87.652635
 32
0.0
 13
104.029325
 23
87.216856
 33
0.0
  0
TEXT
  5
115
100
AcDbEntity
  8
0
370
    13
390
0
 62
     7
100
AcDbText
 10
106.618915
 20
88.434746
 30
0.0
 40
3.0
  1
14,5
 41
0.6
 72
     5
 11
113.314449
 21
88.434746
 31
0.0
100
AcDbText
  0
TEXT
  5
116
100
AcDbEntity
  8
0
370
    13
390
0
 62
     7
100
AcDbText
 10
104.298915
 20
88.434746
 30
0.0
 40
3.0
  1
%%c
 41
0.6
 72
     5
 11
105.618915
 21
88.434746
 31
0.0
100
AcDbText
  0
LINE
  5
117
100
AcDbEntity
  8
0
370
    13
390
0
 62
     7
100
AcDbLine
 10
101.538838
 20
104.388742
 30
0.0
 11
101.538838
 21
86.434746
 31
0.0
210
0.0
220
0.0
230
1.0
  0
LINE
  5
118
100
AcDbEntity
  8
0
370
    13
390
0
 62
     7
100
AcDbLine
 10
116.074526
 20
104.388742
 30
0.0
 11
116.074526
 21
86.434746
 31
0.0
210
0.0
220
0.0
230
1.0
  0
LINE
  5
119
100
AcDbEntity
  8
0
370
    13
390
0
 62
     7
100
AcDbLine
 10
104.029325
 20
87.434746
 30
0.0
 11
113.584039
 21
87.434746
 31
0.0
210
0.0
220
0.0
230
1.0
  0
POLYLINE
  5
11A
100
AcDbEntity
  8
0
370
    13
390
0
 62
     7
100
AcDb2dPolyline
 66
     1
 10
0.0
 20
0.0
 30
0.0
 70
     1
 71
     3
  0
VERTEX
  5
11B
100
AcDbEntity
  8
0
370
     0
390
0
100
AcDbVertex
100
AcDb2dVertex
 10
113.584039
 20
87.216856
 30
0.0
  0
VERTEX
  5
11C
100
AcDbEntity
  8
0
370
     0
390
0
100
AcDbVertex
100
AcDb2dVertex
 10
116.074526
 20
87.434746
 30
0.0
  0
VERTEX
  5
11D
100
AcDbEntity
  8
0
370
     0
390
0
100
AcDbVertex
100
AcDb2dVertex
 10
113.584039
 20
87.652635
 30
0.0
  0
SEQEND
  5
11E
100
AcDbEntity
  8
0
370
     0
390
0
  0
POLYLINE
  5
11F
100
AcDbEntity
  8
0
370
    13
390
0
 62
     7
100
AcDb2dPolyline
 66
     1
 10
0.0
 20
0.0
 30
0.0
 70
     1
 71
     3
  0
VERTEX
  5
120
100
AcDbEntity
  8
0
370
     0
390
0
100
AcDbVertex
100
AcDb2dVertex
 10
104.029325
 20
87.652635
 30
0.0
  0
VERTEX
  5
121
100
AcDbEntity
  8
0
370
     0
390
0
100
AcDbVertex
100
AcDb2dVertex
 10
101.538838
 20
87.434746
 30
0.0
  0
VERTEX
  5
122
100
AcDbEntity
  8
0
370
     0
390
0
100
AcDbVertex
100
AcDb2dVertex
 10
104.029325
 20
87.216856
 30
0.0
  0
SEQEND
  5
123
100
AcDbEntity
  8
0
370
     0
390
0
  0
ENDBLK
  5
124
100
AcDbEntity
  8
0
390
0
100
AcDbBlockEnd
  0
BLOCK
  5
125
100
AcDbEntity
  8
0
370
     0
390
0
100
AcDbBlockBegin
  2
*D32
 70
    65
 10
0.0
 20
0.0
 30
0.0
  3
*D32
  1

  0
SOLID
  5
126
100
AcDbEntity
  8
0
370
    13
390
0
 62
     7
100
AcDbTrace
 10
80.188783
 20
210.898256
 30
0.0
 11
79.970893
 21
213.388742
 31
0.0
 12
80.188783
 22
210.898256
 32
0.0
 13
79.753004
 23
210.898256
 33
0.0
  0
SOLID
  5
127
100
AcDbEntity
  8
0
370
    13
390
0
 62
     7
100
AcDbTrace
 10
79.753004
 20
100.879229
 30
0.0
 11
79.970893
 21
98.388742
 31
0.0
 12
79.753004
 22
100.879229
 32
0.0
 13
80.188783
 23
100.879229
 33
0.0
  0
TEXT
  5
128
100
AcDbEntity
  8
0
370
    13
390
0
 62
     7
100
AcDbText
 10
78.970893
 20
153.396665
 30
0.0
 40
3.0
  1
115
 50
90.000003
 41
0.6
 72
     5
 11
78.970893
 21
158.380819
 31
0.0
100
AcDbText
  0
LINE
  5
129
100
AcDbEntity
  8
0
370
    13
390
0
 62
     7
100
AcDbLine
 10
108.806682
 20
98.388742
 30
0.0
 11
78.970893
 21
98.388742
 31
0.0
210
0.0
220
0.0
230
1.0
  0
LINE
  5
12A
100
AcDbEntity
  8
0
370
    13
390
0
 62
     7
100
AcDbLine
 10
108.806682
 20
213.388742
 30
0.0
 11
78.970893
 21
213.388742
 31
0.0
210
0.0
220
0.0
230
1.0
  0
LINE
  5
12B
100
AcDbEntity
  8
0
370
    13
390
0
 62
     7
100
AcDbLine
 10
79.970893
 20
100.879229
 30
0.0
 11
79.970893
 21
210.898256
 31
0.0
210
0.0
220
0.0
230
1.0
  0
POLYLINE
  5
12C
100
AcDbEntity
  8
0
370
    13
390
0
 62
     7
100
AcDb2dPolyline
 66
     1
 10
0.0
 20
0.0
 30
0.0
 70
     1
 71
     3
  0
VERTEX
  5
12D
100
AcDbEntity
  8
0
370
     0
390
0
100
AcDbVertex
100
AcDb2dVertex
 10
80.188783
 20
210.898256
 30
0.0
  0
VERTEX
  5
12E
100
AcDbEntity
  8
0
370
     0
390
0
100
AcDbVertex
100
AcDb2dVertex
 10
79.970893
 20
213.388742
 30
0.0
  0
VERTEX
  5
12F
100
AcDbEntity
  8
0
370
     0
390
0
100
AcDbVertex
100
AcDb2dVertex
 10
79.753004
 20
210.898256
 30
0.0
  0
SEQEND
  5
130
100
AcDbEntity
  8
0
370
     0
390
0
  0
POLYLINE
  5
131
100
AcDbEntity
  8
0
370
    13
390
0
 62
     7
100
AcDb2dPolyline
 66
     1
 10
0.0
 20
0.0
 30
0.0
 70
     1
 71
     3
  0
VERTEX
  5
132
100
AcDbEntity
  8
0
370
     0
390
0
100
AcDbVertex
100
AcDb2dVertex
 10
79.753004
 20
100.879229
 30
0.0
  0
VERTEX
  5
133
100
AcDbEntity
  8
0
370
     0
390
0
100
AcDbVertex
100
AcDb2dVertex
 10
79.970893
 20
98.388742
 30
0.0
  0
VERTEX
  5
134
100
AcDbEntity
  8
0
370
     0
390
0
100
AcDbVertex
100
AcDb2dVertex
 10
80.188783
 20
100.879229
 30
0.0
  0
SEQEND
  5
135
100
AcDbEntity
  8
0
370
     0
390
0
  0
ENDBLK
  5
136
100
AcDbEntity
  8
0
390
0
100
AcDbBlockEnd
  0
BLOCK
  5
137
100
AcDbEntity
  8
0
370
     0
390
0
100
AcDbBlockBegin
  2
BLOCK64
 70
     0
 10
0.0
 20
0.0
 30
0.0
  3
BLOCK64
  1

  0
SOLID
  5
138
100
AcDbEntity
  8
0
370
     5
390
0
 62
     7
100
AcDbTrace
 10
7.267844
 20
85.0
 30
0.0
 11
6.0
 21
85.0
 31
0.0
 12
6.522126
 22
1.293222
 32
0.0
 13
6.202236
 23
0.711355
 33
0.0
  0
SOLID
  5
139
100
AcDbEntity
  8
0
370
     5
390
0
 62
     7
100
AcDbTrace
 10
7.267844
 20
85.0
 30
0.0
 11
6.522126
 21
1.293222
 31
0.0
 12
6.996372
 22
2.532175
 32
0.0
 13
6.787577
 23
1.901855
 33
0.0
  0
SOLID
  5
13A
100
AcDbEntity
  8
0
370
     5
390
0
 62
     7
100
AcDbTrace
 10
7.267844
 20
85.0
 30
0.0
 11
6.996372
 21
2.532175
 31
0.0
 12
7.237512
 22
3.836691
 32
0.0
 13
7.146769
 23
3.17892
 33
0.0
  0
SOLID
  5
13B
100
AcDbEntity
  8
0
370
     5
390
0
 62
     7
100
AcDbTrace
 10
7.267844
 20
85.0
 30
0.0
 11
7.237512
 21
3.836691
 31
0.0
 12
7.267844
 22
4.5
 32
0.0
 13
7.267844
 23
4.5
 33
0.0
  0
SOLID
  5
13C
100
AcDbEntity
  8
0
370
     5
390
0
 62
     7
100
AcDbTrace
 10
6.202236
 20
0.711355
 30
0.0
 11
6.0
 21
85.0
 31
0.0
 12
5.969705
 22
3.897819
 32
0.0
 13
6.0
 23
4.5
 33
0.0
  0
SOLID
  5
13D
100
AcDbEntity
  8
0
370
     5
390
0
 62
     7
100
AcDbTrace
 10
6.202236
 20
0.711355
 30
0.0
 11
5.969705
 21
3.897819
 31
0.0
 12
5.830575
 22
0.161113
 32
0.0
 13
5.879126
 23
3.301719
 33
0.0
  0
SOLID
  5
13E
100
AcDbEntity
  8
0
370
     5
390
0
 62
     7
100
AcDbTrace
 10
5.879126
 20
3.301719
 30
0.0
 11
5.729178
 21
2.71772
 31
0.0
 12
5.830575
 22
0.161113
 32
0.0
 13
5.521375
 23
2.151719
 33
0.0
  0
SOLID
  5
13F
100
AcDbEntity
  8
0
370
     5
390
0
 62
     7
100
AcDbTrace
 10
5.830575
 20
0.161113
 30
0.0
 11
5.521375
 21
2.151719
 31
0.0
 12
5.410248
 22
-0.352914
 32
0.0
 13
5.257814
 23
1.609432
 33
0.0
  0
SOLID
  5
140
100
AcDbEntity
  8
0
370
     5
390
0
 62
     7
100
AcDbTrace
 10
5.410248
 20
-0.352914
 30
0.0
 11
5.257814
 21
1.609432
 31
0.0
 12
4.944761
 22
-0.826433
 32
0.0
 13
4.94116
 23
1.096334
 33
0.0
  0
SOLID
  5
141
100
AcDbEntity
  8
0
370
     5
390
0
 62
     7
100
AcDbTrace
 10
4.944761
 20
-0.826433
 30
0.0
 11
4.94116
 21
1.096334
 31
0.0
 12
4.574607
 22
0.617608
 32
0.0
 13
4.574607
 23
0.617608
 33
0.0
  0
SOLID
  5
142
100
AcDbEntity
  8
0
370
     5
390
0
 62
     7
100
AcDbTrace
 10
4.944761
 20
-0.826433
 30
0.0
 11
4.574607
 21
0.617608
 31
0.0
 12
4.438001
 22
-1.255493
 32
0.0
 13
4.161859
 23
0.178087
 33
0.0
  0
SOLID
  5
143
100
AcDbEntity
  8
0
370
     5
390
0
 62
     7
100
AcDbTrace
 10
4.438001
 20
-1.255493
 30
0.0
 11
4.161859
 21
0.178087
 31
0.0
 12
3.894197
 22
-1.636512
 32
0.0
 13
3.707083
 23
-0.217789
 33
0.0
  0
SOLID
  5
144
100
AcDbEntity
  8
0
370
     5
390
0
 62
     7
100
AcDbTrace
 10
3.894197
 20
-1.636512
 30
0.0
 11
3.707083
 21
-0.217789
 31
0.0
 12
3.894197
 22
-3.3799
 32
0.0
 13
3.214872
 23
-0.566024
 33
0.0
  0
SOLID
  5
145
100
AcDbEntity
  8
0
370
     5
390
0
 62
     7
100
AcDbTrace
 10
3.894197
 20
-3.3799
 30
0.0
 11
3.214872
 21
-0.566024
 31
0.0
 12
2.626354
 22
-0.939495
 32
0.0
 13
2.626354
 23
-0.939495
 33
0.0
  0
SOLID
  5
146
100
AcDbEntity
  8
0
370
     5
390
0
 62
     7
100
AcDbTrace
 10
3.894197
 20
-3.3799
 30
0.0
 11
2.626354
 21
-0.939495
 31
0.0
 12
2.626354
 22
-3.3799
 32
0.0
 13
2.626354
 23
-3.3799
 33
0.0
  0
ENDBLK
  5
147
100
AcDbEntity
  8
0
390
0
100
AcDbBlockEnd
  0
BLOCK
  5
148
100
AcDbEntity
  8
0
370
     0
390
0
100
AcDbBlockBegin
  2
BLOCK65
 70
     0
 10
0.0
 20
0.0
 30
0.0
  3
BLOCK65
  1

  0
SOLID
  5
149
100
AcDbEntity
  8
0
370
     5
390
0
 62
     7
100
AcDbTrace
 10
-2.626354
 20
-3.3799
 30
0.0
 11
-3.894197
 21
-3.3799
 31
0.0
 12
-3.214872
 22
-0.566024
 32
0.0
 13
-3.707083
 23
-0.217789
 33
0.0
  0
SOLID
  5
14A
100
AcDbEntity
  8
0
370
     5
390
0
 62
     7
100
AcDbTrace
 10
-2.626354
 20
-3.3799
 30
0.0
 11
-3.214872
 21
-0.566024
 31
0.0
 12
-2.626354
 22
-0.939495
 32
0.0
 13
-2.626354
 23
-0.939495
 33
0.0
  0
SOLID
  5
14B
100
AcDbEntity
  8
0
370
     5
390
0
 62
     7
100
AcDbTrace
 10
-4.94116
 20
1.096334
 30
0.0
 11
-4.574607
 21
0.617608
 31
0.0
 12
-4.438001
 22
-1.255493
 32
0.0
 13
-4.161859
 23
0.178087
 33
0.0
  0
SOLID
  5
14C
100
AcDbEntity
  8
0
370
     5
390
0
 62
     7
100
AcDbTrace
 10
-4.438001
 20
-1.255493
 30
0.0
 11
-4.161859
 21
0.178087
 31
0.0
 12
-3.894197
 22
-1.636512
 32
0.0
 13
-3.707083
 23
-0.217789
 33
0.0
  0
SOLID
  5
14D
100
AcDbEntity
  8
0
370
     5
390
0
 62
     7
100
AcDbTrace
 10
-3.894197
 20
-1.636512
 30
0.0
 11
-3.707083
 21
-0.217789
 31
0.0
 12
-3.894197
 22
-3.3799
 32
0.0
 13
-3.894197
 23
-3.3799
 33
0.0
  0
SOLID
  5
14E
100
AcDbEntity
  8
0
370
     5
390
0
 62
     7
100
AcDbTrace
 10
-5.729178
 20
2.71772
 30
0.0
 11
-5.521375
 21
2.151719
 31
0.0
 12
-5.410248
 22
-0.352914
 32
0.0
 13
-5.257814
 23
1.609432
 33
0.0
  0
SOLID
  5
14F
100
AcDbEntity
  8
0
370
     5
390
0
 62
     7
100
AcDbTrace
 10
-5.410248
 20
-0.352914
 30
0.0
 11
-5.257814
 21
1.609432
 31
0.0
 12
-4.944761
 22
-0.826433
 32
0.0
 13
-4.94116
 23
1.096334
 33
0.0
  0
SOLID
  5
150
100
AcDbEntity
  8
0
370
     5
390
0
 62
     7
100
AcDbTrace
 10
-4.944761
 20
-0.826433
 30
0.0
 11
-4.94116
 21
1.096334
 31
0.0
 12
-4.438001
 22
-1.255493
 32
0.0
 13
-4.438001
 23
-1.255493
 33
0.0
  0
SOLID
  5
151
100
AcDbEntity
  8
0
370
     5
390
0
 62
     7
100
AcDbTrace
 10
-5.830575
 20
0.161113
 30
0.0
 11
-6.202236
 21
0.711355
 31
0.0
 12
-5.969705
 22
3.897819
 32
0.0
 13
-6.0
 23
4.5
 33
0.0
  0
SOLID
  5
152
100
AcDbEntity
  8
0
370
     5
390
0
 62
     7
100
AcDbTrace
 10
-5.830575
 20
0.161113
 30
0.0
 11
-5.969705
 21
3.897819
 31
0.0
 12
-5.729178
 22
2.71772
 32
0.0
 13
-5.879126
 23
3.301719
 33
0.0
  0
SOLID
  5
153
100
AcDbEntity
  8
0
370
     5
390
0
 62
     7
100
AcDbTrace
 10
-5.830575
 20
0.161113
 30
0.0
 11
-5.729178
 21
2.71772
 31
0.0
 12
-5.410248
 22
-0.352914
 32
0.0
 13
-5.410248
 23
-0.352914
 33
0.0
  0
SOLID
  5
154
100
AcDbEntity
  8
0
370
     5
390
0
 62
     7
100
AcDbTrace
 10
-6.0
 20
85.0
 30
0.0
 11
-6.0
 21
4.5
 31
0.0
 12
-6.522126
 22
1.293222
 32
0.0
 13
-6.202236
 23
0.711355
 33
0.0
  0
SOLID
  5
155
100
AcDbEntity
  8
0
370
     5
390
0
 62
     7
100
AcDbTrace
 10
-6.0
 20
85.0
 30
0.0
 11
-6.522126
 21
1.293222
 31
0.0
 12
-6.996372
 22
2.532175
 32
0.0
 13
-6.787577
 23
1.901855
 33
0.0
  0
SOLID
  5
156
100
AcDbEntity
  8
0
370
     5
390
0
 62
     7
100
AcDbTrace
 10
-6.0
 20
85.0
 30
0.0
 11
-6.996372
 21
2.532175
 31
0.0
 12
-7.237512
 22
3.836691
 32
0.0
 13
-7.146769
 23
3.17892
 33
0.0
  0
SOLID
  5
157
100
AcDbEntity
  8
0
370
     5
390
0
 62
     7
100
AcDbTrace
 10
-6.0
 20
85.0
 30
0.0
 11
-7.237512
 21
3.836691
 31
0.0
 12
-7.267844
 22
85.0
 32
0.0
 13
-7.267844
 23
4.5
 33
0.0
  0
ENDBLK
  5
158
100
AcDbEntity
  8
0
390
0
100
AcDbBlockEnd
  0
BLOCK
  5
159
100
AcDbEntity
  8
0
370
     0
390
0
100
AcDbBlockBegin
  2
BLOCK66
 70
     0
 10
0.0
 20
0.0
 30
0.0
  3
BLOCK66
  1

  0
LINE
  5
15A
100
AcDbEntity
  8
0
370
    35
390
0
 62
     7
100
AcDbLine
 10
16.25
 20
108.75
 30
0.0
 11
2.88314
 21
108.75
 31
0.0
210
0.0
220
0.0
230
1.0
  0
LINE
  5
15B
100
AcDbEntity
  8
0
370
    35
390
0
 62
     7
100
AcDbLine
 10
-2.88314
 20
108.75
 30
0.0
 11
-7.790665
 21
108.75
 31
0.0
210
0.0
220
0.0
230
1.0
  0
LINE
  5
15C
100
AcDbEntity
  8
0
370
    35
390
0
 62
     7
100
AcDbLine
 10
7.790665
 20
108.75
 30
0.0
 11
16.25
 21
108.75
 31
0.0
210
0.0
220
0.0
230
1.0
  0
ARC
  5
15D
100
AcDbEntity
  8
0
370
    35
390
0
 62
     7
100
AcDbCircle
 10
16.25
 20
110.0
 30
0.0
 40
1.25
210
0.0
220
0.0
230
1.0
100
AcDbArc
 50
270.000001
 51
0.0
  0
ARC
  5
15E
100
AcDbEntity
  8
0
370
    35
390
0
 62
     7
100
AcDbCircle
 10
16.25
 20
110.0
 30
0.0
 40
1.25
210
0.0
220
0.0
230
1.0
100
AcDbArc
 50
360.0
 51
89.999999
  0
LINE
  5
15F
100
AcDbEntity
  8
0
370
    35
390
0
 62
     7
100
AcDbLine
 10
16.25
 20
111.25
 30
0.0
 11
2.783882
 21
111.25
 31
0.0
210
0.0
220
0.0
230
1.0
  0
LINE
  5
160
100
AcDbEntity
  8
0
370
    35
390
0
 62
     7
100
AcDbLine
 10
-2.783882
 20
111.25
 30
0.0
 11
-7.790665
 21
111.25
 31
0.0
210
0.0
220
0.0
230
1.0
  0
ARC
  5
161
100
AcDbEntity
  8
0
370
    35
390
0
 62
     7
100
AcDbCircle
 10
-16.25
 20
110.0
 30
0.0
 40
1.25
210
0.0
220
0.0
230
1.0
100
AcDbArc
 50
90.000001
 51
179.999999
  0
LINE
  5
162
100
AcDbEntity
  8
0
370
    35
390
0
 62
     7
100
AcDbLine
 10
-7.790665
 20
111.25
 30
0.0
 11
-16.25
 21
111.25
 31
0.0
210
0.0
220
0.0
230
1.0
  0
LINE
  5
163
100
AcDbEntity
  8
0
370
    35
390
0
 62
     7
100
AcDbLine
 10
-16.25
 20
108.75
 30
0.0
 11
-2.878455
 21
108.75
 31
0.0
210
0.0
220
0.0
230
1.0
  0
LINE
  5
164
100
AcDbEntity
  8
0
370
    35
390
0
 62
     7
100
AcDbLine
 10
-7.790665
 20
108.75
 30
0.0
 11
-16.25
 21
108.75
 31
0.0
210
0.0
220
0.0
230
1.0
  0
ARC
  5
165
100
AcDbEntity
  8
0
370
    35
390
0
 62
     7
100
AcDbCircle
 10
-16.25
 20
110.0
 30
0.0
 40
1.25
210
0.0
220
0.0
230
1.0
100
AcDbArc
 50
180.000001
 51
269.999999
  0
LINE
  5
166
100
AcDbEntity
  8
0
370
    35
390
0
 62
     7
100
AcDbLine
 10
2.883142
 20
108.75
 30
0.0
 11
7.790665
 21
108.75
 31
0.0
210
0.0
220
0.0
230
1.0
  0
SPLINE
  5
167
100
AcDbEntity
  8
0
370
    35
390
0
 62
     7
100
AcDbSpline
210
0.0
220
0.0
230
1.0
 70
     8
 71
     5
 72
    21
 73
    15
 74
     0
 42
0.0
 43
0.0
 40
0.0
 40
0.0
 40
0.0
 40
0.0
 40
0.0
 40
0.0
 40
1.6899764642596407
 40
1.6899764642596407
 40
1.6899764642596407
 40
3.2335818605852533
 40
3.2335818605852533
 40
3.2335818605852533
 40
4.1836625983502298
 40
4.1836625983502298
 40
4.1836625983502298
 40
5.0857234834975218
 40
5.0857234834975218
 40
5.0857234834975218
 40
5.0857234834975218
 40
5.0857234834975218
 40
5.0857234834975218
 10
-2.5980762113538858
 20
110.00000000000006
 30
0.0
 10
-2.5980762113538858
 20
109.80485832668717
 30
0.0
 10
-2.6163975915304527
 20
109.60971795476682
 30
0.0
 10
-2.6529406065066423
 20
109.42224494159851
 30
0.0
 10
-2.7448913759034488
 20
109.08573520130659
 30
0.0
 10
-2.8541422782325561
 20
108.81016386838273
 30
0.0
 10
-2.9060366894431691
 20
108.69415291850062
 30
0.0
 10
-2.9745831730038073
 20
108.5502945161728
 30
0.0
 10
-3.0018552429551546
 20
108.49627084774771
 30
0.0
 10
-3.0046343853603532
 20
108.49082449943201
 30
0.0
 10
-2.9944131367591971
 20
108.51079751817161
 30
0.0
 10
-2.958684654941603
 20
108.58387135963028
 30
0.0
 10
-2.9362414778708281
 20
108.63078730569271
 30
0.0
 10
-2.9106378914570543
 20
108.68657877800371
 30
0.0
 10
-2.8831412173605711
 20
108.75000209826999
 30
0.0
  0
SPLINE
  5
168
100
AcDbEntity
  8
0
370
    35
390
0
 62
     7
100
AcDbSpline
210
0.0
220
0.0
230
1.0
 70
     8
 71
     5
 72
    21
 73
    15
 74
     0
 42
0.0
 43
0.0
 40
0.0
 40
0.0
 40
0.0
 40
0.0
 40
0.0
 40
0.0
 40
1.6899758903624531
 40
1.6899758903624531
 40
1.6899758903624531
 40
3.2335808449434364
 40
3.2335808449434364
 40
3.2335808449434364
 40
4.1836612775760518
 40
4.1836612775760518
 40
4.1836612775760518
 40
5.085721752717336
 40
5.085721752717336
 40
5.085721752717336
 40
5.085721752717336
 40
5.085721752717336
 40
5.085721752717336
 10
2.5980762113527494
 20
110.00000000000004
 30
0.0
 10
2.5980762113527494
 20
109.8048583929551
 30
0.0
 10
2.6163975790858371
 20
109.60971808730196
 30
0.0
 10
2.6529405695556068
 20
109.42224513200105
 30
0.0
 10
2.7448912874215456
 20
109.08573547476836
 30
0.0
 10
2.8541421531103186
 20
108.81016416802312
 30
0.0
 10
2.9060365538884958
 20
108.69415321611687
 30
0.0
 10
2.974583056525006
 20
108.55029475178935
 30
0.0
 10
3.001855204462935
 20
108.49627092364521
 30
0.0
 10
3.0046343853835582
 20
108.49082449967466
 30
0.0
 10
2.9944132197997195
 20
108.51079735382201
 30
0.0
 10
2.9586848212372003
 20
108.58387101513006
 30
0.0
 10
2.9362416826397619
 20
108.63078687082024
 30
0.0
 10
2.9106381295898243
 20
108.68657825392876
 30
0.0
 10
2.8831414825986994
 20
108.75000148647365
 30
0.0
  0
ARC
  5
169
100
AcDbEntity
  8
0
370
    35
390
0
 62
     7
100
AcDbCircle
 10
-82.693676
 20
126.60381
 30
0.0
 40
86.845575
210
0.0
220
0.0
230
1.0
100
AcDbArc
 50
349.313771
 51
349.984414
  0
ARC
  5
16A
100
AcDbEntity
  8
0
370
    35
390
0
 62
     7
100
AcDbCircle
 10
5.280617
 20
109.995984
 30
0.0
 40
2.682587
210
0.0
220
0.0
230
1.0
100
AcDbArc
 50
169.170869
 51
179.914225
  0
ARC
  5
16B
100
AcDbEntity
  8
0
370
    35
390
0
 62
     7
100
AcDbCircle
 10
-5.280617
 20
109.995984
 30
0.0
 40
2.682587
210
0.0
220
0.0
230
1.0
100
AcDbArc
 50
0.085775
 51
10.829131
  0
ARC
  5
16C
100
AcDbEntity
  8
0
370
    35
390
0
 62
     7
100
AcDbCircle
 10
82.464756
 20
126.562169
 30
0.0
 40
86.612902
210
0.0
220
0.0
230
1.0
100
AcDbArc
 50
190.014775
 51
190.687241
  0
LINE
  5
16D
100
AcDbEntity
  8
0
370
    13
390
0
 62
     7
100
AcDbLine
 10
1.438277
 20
110.5
 30
0.0
 11
-2.645751
 21
110.5
 31
0.0
210
0.0
220
0.0
230
1.0
  0
LINE
  5
16E
100
AcDbEntity
  8
0
370
    13
390
0
 62
     7
100
AcDbLine
 10
2.645751
 20
110.5
 30
0.0
 11
1.438277
 21
110.5
 31
0.0
210
0.0
220
0.0
230
1.0
  0
ARC
  5
16F
100
AcDbEntity
  8
0
370
    35
390
0
 62
     7
100
AcDbCircle
 10
0.000002
 20
110.499997
 30
0.0
 40
3.000003
210
0.0
220
0.0
230
1.0
100
AcDbArc
 50
90.000029
 51
160.528747
  0
ARC
  5
170
100
AcDbEntity
  8
0
370
    35
390
0
 62
     7
100
AcDbCircle
 10
-0.000002
 20
110.499997
 30
0.0
 40
3.000003
210
0.0
220
0.0
230
1.0
100
AcDbArc
 50
19.471253
 51
89.999971
  0
LINE
  5
171
100
AcDbEntity
  8
0
370
    35
390
0
 62
     7
100
AcDbLine
 10
-3.0
 20
106.5
 30
0.0
 11
-3.0
 21
108.5
 31
0.0
210
0.0
220
0.0
230
1.0
  0
LINE
  5
172
100
AcDbEntity
  8
0
370
    35
390
0
 62
     7
100
AcDbLine
 10
3.0
 20
106.5
 30
0.0
 11
3.0
 21
108.5
 31
0.0
210
0.0
220
0.0
230
1.0
  0
LINE
  5
173
100
AcDbEntity
  8
0
370
    35
390
0
 62
     7
100
AcDbLine
 10
10.297132
 20
87.3
 30
0.0
 11
-10.3
 21
87.3
 31
0.0
210
0.0
220
0.0
230
1.0
  0
LINE
  5
174
100
AcDbEntity
  8
0
370
    35
390
0
 62
     7
100
AcDbLine
 10
10.3
 20
87.3
 30
0.0
 11
10.297132
 21
87.3
 31
0.0
210
0.0
220
0.0
230
1.0
  0
LINE
  5
175
100
AcDbEntity
  8
0
370
    35
390
0
 62
     7
100
AcDbLine
 10
8.997494
 20
86.0
 30
0.0
 11
-9.0
 21
86.0
 31
0.0
210
0.0
220
0.0
230
1.0
  0
LINE
  5
176
100
AcDbEntity
  8
0
370
    35
390
0
 62
     7
100
AcDbLine
 10
9.0
 20
86.0
 30
0.0
 11
8.997494
 21
86.0
 31
0.0
210
0.0
220
0.0
230
1.0
  0
LINE
  5
177
100
AcDbEntity
  8
0
370
    35
390
0
 62
     7
100
AcDbLine
 10
10.996937
 20
98.0
 30
0.0
 11
9.526279
 21
98.0
 31
0.0
210
0.0
220
0.0
230
1.0
  0
LINE
  5
178
100
AcDbEntity
  8
0
370
    35
390
0
 62
     7
100
AcDbLine
 10
9.526279
 20
98.0
 30
0.0
 11
0.0
 21
98.0
 31
0.0
210
0.0
220
0.0
230
1.0
  0
LINE
  5
179
100
AcDbEntity
  8
0
370
    35
390
0
 62
     7
100
AcDbLine
 10
0.0
 20
98.0
 30
0.0
 11
-9.526279
 21
98.0
 31
0.0
210
0.0
220
0.0
230
1.0
  0
LINE
  5
17A
100
AcDbEntity
  8
0
370
    35
390
0
 62
     7
100
AcDbLine
 10
-9.526279
 20
98.0
 30
0.0
 11
-11.0
 21
98.0
 31
0.0
210
0.0
220
0.0
230
1.0
  0
LINE
  5
17B
100
AcDbEntity
  8
0
370
    35
390
0
 62
     7
100
AcDbLine
 10
11.0
 20
98.0
 30
0.0
 11
10.996937
 21
98.0
 31
0.0
210
0.0
220
0.0
230
1.0
  0
LINE
  5
17C
100
AcDbEntity
  8
0
370
    35
390
0
 62
     7
100
AcDbLine
 10
11.0
 20
101.7
 30
0.0
 11
10.996937
 21
101.7
 31
0.0
210
0.0
220
0.0
230
1.0
  0
LINE
  5
17D
100
AcDbEntity
  8
0
370
    35
390
0
 62
     7
100
AcDbLine
 10
-9.526279
 20
101.7
 30
0.0
 11
-11.0
 21
101.7
 31
0.0
210
0.0
220
0.0
230
1.0
  0
LINE
  5
17E
100
AcDbEntity
  8
0
370
    35
390
0
 62
     7
100
AcDbLine
 10
0.0
 20
101.7
 30
0.0
 11
-9.526279
 21
101.7
 31
0.0
210
0.0
220
0.0
230
1.0
  0
LINE
  5
17F
100
AcDbEntity
  8
0
370
    35
390
0
 62
     7
100
AcDbLine
 10
9.526279
 20
101.7
 30
0.0
 11
0.0
 21
101.7
 31
0.0
210
0.0
220
0.0
230
1.0
  0
LINE
  5
180
100
AcDbEntity
  8
0
370
    35
390
0
 62
     7
100
AcDbLine
 10
10.996937
 20
101.7
 30
0.0
 11
9.526279
 21
101.7
 31
0.0
210
0.0
220
0.0
230
1.0
  0
LINE
  5
181
100
AcDbEntity
  8
0
370
    35
390
0
 62
     7
100
AcDbLine
 10
10.996937
 20
102.7
 30
0.0
 11
9.526279
 21
102.7
 31
0.0
210
0.0
220
0.0
230
1.0
  0
LINE
  5
182
100
AcDbEntity
  8
0
370
    35
390
0
 62
     7
100
AcDbLine
 10
9.526279
 20
102.7
 30
0.0
 11
0.0
 21
102.7
 31
0.0
210
0.0
220
0.0
230
1.0
  0
LINE
  5
183
100
AcDbEntity
  8
0
370
    35
390
0
 62
     7
100
AcDbLine
 10
0.0
 20
102.7
 30
0.0
 11
-9.526279
 21
102.7
 31
0.0
210
0.0
220
0.0
230
1.0
  0
LINE
  5
184
100
AcDbEntity
  8
0
370
    35
390
0
 62
     7
100
AcDbLine
 10
-9.526279
 20
102.7
 30
0.0
 11
-11.0
 21
102.7
 31
0.0
210
0.0
220
0.0
230
1.0
  0
LINE
  5
185
100
AcDbEntity
  8
0
370
    35
390
0
 62
     7
100
AcDbLine
 10
11.0
 20
102.7
 30
0.0
 11
10.996937
 21
102.7
 31
0.0
210
0.0
220
0.0
230
1.0
  0
LINE
  5
186
100
AcDbEntity
  8
0
370
    35
390
0
 62
     7
100
AcDbLine
 10
11.0
 20
106.5
 30
0.0
 11
10.996937
 21
106.5
 31
0.0
210
0.0
220
0.0
230
1.0
  0
LINE
  5
187
100
AcDbEntity
  8
0
370
    35
390
0
 62
     7
100
AcDbLine
 10
-9.526279
 20
106.5
 30
0.0
 11
-11.0
 21
106.5
 31
0.0
210
0.0
220
0.0
230
1.0
  0
LINE
  5
188
100
AcDbEntity
  8
0
370
    35
390
0
 62
     7
100
AcDbLine
 10
0.0
 20
106.5
 30
0.0
 11
-9.526279
 21
106.5
 31
0.0
210
0.0
220
0.0
230
1.0
  0
LINE
  5
189
100
AcDbEntity
  8
0
370
    35
390
0
 62
     7
100
AcDbLine
 10
9.526279
 20
106.5
 30
0.0
 11
0.0
 21
106.5
 31
0.0
210
0.0
220
0.0
230
1.0
  0
LINE
  5
18A
100
AcDbEntity
  8
0
370
    35
390
0
 62
     7
100
AcDbLine
 10
10.996937
 20
106.5
 30
0.0
 11
9.526279
 21
106.5
 31
0.0
210
0.0
220
0.0
230
1.0
  0
LINE
  5
18B
100
AcDbEntity
  8
0
370
    35
390
0
 62
     7
100
AcDbLine
 10
12.5
 20
98.866025
 30
0.0
 11
12.49652
 21
98.866025
 31
0.0
210
0.0
220
0.0
230
1.0
  0
LINE
  5
18C
100
AcDbEntity
  8
0
370
    35
390
0
 62
     7
100
AcDbLine
 10
6.557694
 20
98.866025
 30
0.0
 11
5.937171
 21
98.866025
 31
0.0
210
0.0
220
0.0
230
1.0
  0
SPLINE
  5
18D
100
AcDbEntity
  8
0
370
    35
390
0
 62
     7
100
AcDbSpline
210
0.0
220
0.0
230
1.0
 70
     8
 71
     5
 72
    15
 73
     9
 74
     0
 42
0.0
 43
0.0
 40
8.6102237526018861
 40
8.6102237526018861
 40
8.6102237526018861
 40
8.6102237526018861
 40
8.6102237526018861
 40
8.6102237526018861
 40
12.334371554050078
 40
12.334371554050078
 40
12.334371554050078
 40
17.220448896702109
 40
17.220448896702109
 40
17.220448896702109
 40
17.220448896702109
 40
17.220448896702109
 40
17.220448896702109
 10
0.0000001615234495
 20
98.000005382804574
 30
0.0
 10
0.5092474664437438
 20
98.00000538415236
 30
0.0
 10
1.0184947893201677
 20
98.017018035060289
 30
0.0
 10
1.5283192354282984
 20
98.051043340815525
 30
0.0
 10
2.7097012625331538
 20
98.168353840677071
 30
0.0
 10
3.898950893647108
 20
98.371822260133698
 30
0.0
 10
4.5763723667233327
 20
98.513582314157006
 30
0.0
 10
5.2563557007989381
 20
98.679328010330735
 30
0.0
 10
5.9371710435188367
 20
98.866025403784391
 30
0.0
  0
SPLINE
  5
18E
100
AcDbEntity
  8
0
370
    35
390
0
 62
     7
100
AcDbSpline
210
0.0
220
0.0
230
1.0
 70
     8
 71
     5
 72
    15
 73
     9
 74
     0
 42
0.0
 43
0.0
 40
0.0
 40
0.0
 40
0.0
 40
0.0
 40
0.0
 40
0.0
 40
4.8860752184967247
 40
4.8860752184967247
 40
4.8860752184967247
 40
8.6102237526438135
 40
8.6102237526438135
 40
8.6102237526438135
 40
8.6102237526438135
 40
8.6102237526438135
 40
8.6102237526438135
 10
6.5576939198694175
 20
98.866025403784406
 30
0.0
 10
6.8981014432417886
 20
98.679328091494895
 30
0.0
 10
7.2380929626543811
 20
98.513582458271358
 30
0.0
 10
7.5768042269666562
 20
98.37182219654936
 30
0.0
 10
8.1714290533549594
 20
98.168353766367403
 30
0.0
 10
8.7621198888758531
 20
98.051043342233271
 30
0.0
 10
9.0170321262783801
 20
98.01701803636152
 30
0.0
 10
9.2716558198471777
 20
98.000005381456589
 30
0.0
 10
9.5262795223935637
 20
98.000005382805014
 30
0.0
  0
LINE
  5
18F
100
AcDbEntity
  8
0
370
    35
390
0
 62
     7
100
AcDbLine
 10
12.49652
 20
98.866025
 30
0.0
 11
12.494865
 21
98.866025
 31
0.0
210
0.0
220
0.0
230
1.0
  0
SPLINE
  5
190
100
AcDbEntity
  8
0
370
    35
390
0
 62
     7
100
AcDbSpline
210
0.0
220
0.0
230
1.0
 70
     8
 71
     5
 72
    15
 73
     9
 74
     0
 42
0.0
 43
0.0
 40
8.6102237526438135
 40
8.6102237526438135
 40
8.6102237526438135
 40
8.6102237526438135
 40
8.6102237526438135
 40
8.6102237526438135
 40
12.334371554159418
 40
12.334371554159418
 40
12.334371554159418
 40
17.220448896890751
 40
17.220448896890751
 40
17.220448896890751
 40
17.220448896890751
 40
17.220448896890751
 40
17.220448896890751
 10
9.5262795223935637
 20
98.000005382805014
 30
0.0
 10
9.7809031748492128
 20
98.00000538415344
 30
0.0
 10
10.035526836282445
 20
98.017018035061596
 30
0.0
 10
10.290439059334279
 20
98.051043340816051
 30
0.0
 10
10.881130072895854
 20
98.168353840673575
 30
0.0
 10
11.47575488846417
 20
98.371822260141471
 30
0.0
 10
11.814465624980954
 20
98.513582314148039
 30
0.0
 10
12.154457292022947
 20
98.679328010327765
 30
0.0
 10
12.494864963388421
 20
98.866025403784448
 30
0.0
  0
SPLINE
  5
191
100
AcDbEntity
  8
0
370
    35
390
0
 62
     7
100
AcDbSpline
210
0.0
220
0.0
230
1.0
 70
     8
 71
     5
 72
    15
 73
     9
 74
     0
 42
0.0
 43
0.0
 40
0.0
 40
0.0
 40
0.0
 40
0.0
 40
0.0
 40
0.0
 40
4.8860752185248195
 40
4.8860752185248195
 40
4.8860752185248195
 40
8.6102237526018861
 40
8.6102237526018861
 40
8.6102237526018861
 40
8.6102237526018861
 40
8.6102237526018861
 40
8.6102237526018861
 10
-5.9371710435191201
 20
98.866025403784377
 30
0.0
 10
-5.2563559967704663
 20
98.679328091493787
 30
0.0
 10
-4.5763729579413814
 20
98.51358245826944
 30
0.0
 10
-3.8989504293376962
 20
98.371822196550838
 30
0.0
 10
-2.7097007765575141
 20
98.168353766369293
 30
0.0
 10
-1.5283191055285386
 20
98.051043342235246
 30
0.0
 10
-1.0184946307232332
 20
98.017018036362714
 30
0.0
 10
-0.50924724357796
 20
98.000005381456774
 30
0.0
 10
0.0000001615234495
 20
98.000005382804574
 30
0.0
  0
LINE
  5
192
100
AcDbEntity
  8
0
370
    35
390
0
 62
     7
100
AcDbLine
 10
-5.937171
 20
98.866025
 30
0.0
 11
-6.557694
 21
98.866025
 31
0.0
210
0.0
220
0.0
230
1.0
  0
SPLINE
  5
193
100
AcDbEntity
  8
0
370
    35
390
0
 62
     7
100
AcDbSpline
210
0.0
220
0.0
230
1.0
 70
     8
 71
     5
 72
    15
 73
     9
 74
     0
 42
0.0
 43
0.0
 40
8.610223752898392
 40
8.610223752898392
 40
8.610223752898392
 40
8.610223752898392
 40
8.610223752898392
 40
8.610223752898392
 40
12.334371554405067
 40
12.334371554405067
 40
12.334371554405067
 40
17.220448897151869
 40
17.220448897151869
 40
17.220448897151869
 40
17.220448897151869
 40
17.220448897151869
 40
17.220448897151869
 10
-9.5262793608666563
 20
98.000005382805981
 30
0.0
 10
-9.2716557084096305
 20
98.000005384153013
 30
0.0
 10
-9.0170320469750216
 20
98.017018035059735
 30
0.0
 10
-8.7621198239224736
 20
98.051043340813933
 30
0.0
 10
-8.1714288103604549
 20
98.168353840676957
 30
0.0
 10
-7.5768039947916845
 20
98.37182226013816
 30
0.0
 10
-7.238093258281844
 20
98.51358231415422
 30
0.0
 10
-6.8981015912361308
 20
98.679328010327097
 30
0.0
 10
-6.5576939198695801
 20
98.866025403784377
 30
0.0
  0
LINE
  5
194
100
AcDbEntity
  8
0
370
    35
390
0
 62
     7
100
AcDbLine
 10
-12.494865
 20
98.866025
 30
0.0
 11
-12.5
 21
98.866025
 31
0.0
210
0.0
220
0.0
230
1.0
  0
SPLINE
  5
195
100
AcDbEntity
  8
0
370
    35
390
0
 62
     7
100
AcDbSpline
210
0.0
220
0.0
230
1.0
 70
     8
 71
     5
 72
    15
 73
     9
 74
     0
 42
0.0
 43
0.0
 40
0.0
 40
0.0
 40
0.0
 40
0.0
 40
0.0
 40
0.0
 40
4.8860752187733905
 40
4.8860752187733905
 40
4.8860752187733905
 40
8.610223752898392
 40
8.610223752898392
 40
8.610223752898392
 40
8.610223752898392
 40
8.610223752898392
 40
8.610223752898392
 10
-12.494864963388533
 20
98.866025403784391
 30
0.0
 10
-12.154457439996891
 20
98.679328091484308
 30
0.0
 10
-11.814465920563748
 20
98.513582458256224
 30
0.0
 10
-11.475754656329505
 20
98.371822196567052
 30
0.0
 10
-10.881129829923497
 20
98.168353766368142
 30
0.0
 10
-10.290438994385132
 20
98.05104334223654
 30
0.0
 10
-10.035526756982794
 20
98.017018036365059
 30
0.0
 10
-9.7809030634135183
 20
98.000005381458948
 30
0.0
 10
-9.5262793608666563
 20
98.000005382805981
 30
0.0
  0
LINE
  5
196
100
AcDbEntity
  8
0
370
    35
390
0
 62
     7
100
AcDbLine
 10
12.5
 20
100.833975
 30
0.0
 11
12.49652
 21
100.833975
 31
0.0
210
0.0
220
0.0
230
1.0
  0
LINE
  5
197
100
AcDbEntity
  8
0
370
    35
390
0
 62
     7
100
AcDbLine
 10
6.557694
 20
100.833975
 30
0.0
 11
5.937171
 21
100.833975
 31
0.0
210
0.0
220
0.0
230
1.0
  0
LINE
  5
198
100
AcDbEntity
  8
0
370
    35
390
0
 62
     7
100
AcDbLine
 10
5.937171
 20
98.866025
 30
0.0
 11
5.937171
 21
100.833975
 31
0.0
210
0.0
220
0.0
230
1.0
  0
LINE
  5
199
100
AcDbEntity
  8
0
370
    35
390
0
 62
     7
100
AcDbLine
 10
6.557694
 20
98.866025
 30
0.0
 11
6.557694
 21
100.833975
 31
0.0
210
0.0
220
0.0
230
1.0
  0
LINE
  5
19A
100
AcDbEntity
  8
0
370
    35
390
0
 62
     7
100
AcDbLine
 10
12.49652
 20
100.833975
 30
0.0
 11
12.494865
 21
100.833975
 31
0.0
210
0.0
220
0.0
230
1.0
  0
LINE
  5
19B
100
AcDbEntity
  8
0
370
    35
390
0
 62
     7
100
AcDbLine
 10
12.494865
 20
98.866025
 30
0.0
 11
12.494865
 21
100.833975
 31
0.0
210
0.0
220
0.0
230
1.0
  0
LINE
  5
19C
100
AcDbEntity
  8
0
370
    35
390
0
 62
     7
100
AcDbLine
 10
-5.937171
 20
98.866025
 30
0.0
 11
-5.937171
 21
100.833975
 31
0.0
210
0.0
220
0.0
230
1.0
  0
LINE
  5
19D
100
AcDbEntity
  8
0
370
    35
390
0
 62
     7
100
AcDbLine
 10
-5.937171
 20
100.833975
 30
0.0
 11
-6.557694
 21
100.833975
 31
0.0
210
0.0
220
0.0
230
1.0
  0
LINE
  5
19E
100
AcDbEntity
  8
0
370
    35
390
0
 62
     7
100
AcDbLine
 10
-6.557694
 20
98.866025
 30
0.0
 11
-6.557694
 21
100.833975
 31
0.0
210
0.0
220
0.0
230
1.0
  0
LINE
  5
19F
100
AcDbEntity
  8
0
370
    35
390
0
 62
     7
100
AcDbLine
 10
-12.494865
 20
100.833975
 30
0.0
 11
-12.5
 21
100.833975
 31
0.0
210
0.0
220
0.0
230
1.0
  0
LINE
  5
1A0
100
AcDbEntity
  8
0
370
    35
390
0
 62
     7
100
AcDbLine
 10
-12.494865
 20
98.866025
 30
0.0
 11
-12.494865
 21
100.833975
 31
0.0
210
0.0
220
0.0
230
1.0
  0
SPLINE
  5
1A1
100
AcDbEntity
  8
0
370
    35
390
0
 62
     7
100
AcDbSpline
210
0.0
220
0.0
230
1.0
 70
     8
 71
     5
 72
    15
 73
     9
 74
     0
 42
0.0
 43
0.0
 40
0.0
 40
0.0
 40
0.0
 40
0.0
 40
0.0
 40
0.0
 40
4.8860752186794532
 40
4.8860752186794532
 40
4.8860752186794532
 40
8.6102237529706755
 40
8.6102237529706755
 40
8.6102237529706755
 40
8.6102237529706755
 40
8.6102237529706755
 40
8.6102237529706755
 10
-6.5576939198695783
 20
100.8339745962155
 30
0.0
 10
-6.8981014432546761
 20
101.020671908512
 30
0.0
 10
-7.2380929626793016
 20
101.18641754174359
 30
0.0
 10
-7.5768042269402587
 20
101.32817780343694
 30
0.0
 10
-8.1714290533535507
 20
101.5316462336372
 30
0.0
 10
-8.7621198888950182
 20
101.6489566577677
 30
0.0
 10
-9.0170321262943087
 20
101.68298196364037
 30
0.0
 10
-9.271655819853807
 20
101.69999461854736
 30
0.0
 10
-9.5262795223909862
 20
101.69999461720062
 30
0.0
  0
SPLINE
  5
1A2
100
AcDbEntity
  8
0
370
    35
390
0
 62
     7
100
AcDbSpline
210
0.0
220
0.0
230
1.0
 70
     8
 71
     5
 72
    15
 73
     9
 74
     0
 42
0.0
 43
0.0
 40
8.6102237527947079
 40
8.6102237527947079
 40
8.6102237527947079
 40
8.6102237527947079
 40
8.6102237527947079
 40
8.6102237527947079
 40
12.33437155422531
 40
12.33437155422531
 40
12.33437155422531
 40
17.220448897019779
 40
17.220448897019779
 40
17.220448897019779
 40
17.220448897019779
 40
17.220448897019779
 40
17.220448897019779
 10
-0.0000001615239886
 20
101.69999461719432
 30
0.0
 10
-0.5092474664477499
 20
101.69999461584658
 30
0.0
 10
-1.0184947893268683
 20
101.68298196493873
 30
0.0
 10
-1.5283192354349657
 20
101.64895665918371
 30
0.0
 10
-2.7097012625534043
 20
101.53164615932073
 30
0.0
 10
-3.898950893689404
 20
101.32817773985914
 30
0.0
 10
-4.5763723666813183
 20
101.18641768584992
 30
0.0
 10
-5.2563557007793715
 20
101.02067198967461
 30
0.0
 10
-5.9371710435191174
 20
100.83397459621551
 30
0.0
  0
SPLINE
  5
1A3
100
AcDbEntity
  8
0
370
    35
390
0
 62
     7
100
AcDbSpline
210
0.0
220
0.0
230
1.0
 70
     8
 71
     5
 72
    15
 73
     9
 74
     0
 42
0.0
 43
0.0
 40
0.0
 40
0.0
 40
0.0
 40
0.0
 40
0.0
 40
0.0
 40
4.8860752187457805
 40
4.8860752187457805
 40
4.8860752187457805
 40
8.6102237527947079
 40
8.6102237527947079
 40
8.6102237527947079
 40
8.6102237527947079
 40
8.6102237527947079
 40
8.6102237527947079
 10
5.9371710435188332
 20
100.83397459621553
 30
0.0
 10
5.2563559967393925
 20
101.02067190851456
 30
0.0
 10
4.5763729578795935
 20
101.18641754174116
 30
0.0
 10
3.8989504293957924
 20
101.32817780343863
 30
0.0
 10
2.7097007765934453
 20
101.53164623362693
 30
0.0
 10
1.5283191055344296
 20
101.6489566577639
 30
0.0
 10
1.0184946307275151
 20
101.68298196363622
 30
0.0
 10
0.5092472435794453
 20
101.69999461854206
 30
0.0
 10
-0.0000001615239886
 20
101.69999461719432
 30
0.0
  0
SPLINE
  5
1A4
100
AcDbEntity
  8
0
370
    35
390
0
 62
     7
100
AcDbSpline
210
0.0
220
0.0
230
1.0
 70
     8
 71
     5
 72
    15
 73
     9
 74
     0
 42
0.0
 43
0.0
 40
8.6102237526754575
 40
8.6102237526754575
 40
8.6102237526754575
 40
8.6102237526754575
 40
8.6102237526754575
 40
8.6102237526754575
 40
12.334371554045742
 40
12.334371554045742
 40
12.334371554045742
 40
17.220448896738755
 40
17.220448896738755
 40
17.220448896738755
 40
17.220448896738755
 40
17.220448896738755
 40
17.220448896738755
 10
9.5262793608664804
 20
101.69999461719571
 30
0.0
 10
9.2716557084010045
 20
101.69999461584855
 30
0.0
 10
9.0170320469580414
 20
101.68298196494075
 30
0.0
 10
8.7621198239032267
 20
101.64895665918462
 30
0.0
 10
8.1714288103550761
 20
101.53164615931748
 30
0.0
 10
7.5768039947982917
 20
101.32817773986829
 30
0.0
 10
7.2380932582728743
 20
101.18641768584274
 30
0.0
 10
6.8981015912322228
 20
101.02067198967077
 30
0.0
 10
6.5576939198694157
 20
100.83397459621555
 30
0.0
  0
SPLINE
  5
1A5
100
AcDbEntity
  8
0
370
    35
390
0
 62
     7
100
AcDbSpline
210
0.0
220
0.0
230
1.0
 70
     8
 71
     5
 72
    15
 73
     9
 74
     0
 42
0.0
 43
0.0
 40
0.0
 40
0.0
 40
0.0
 40
0.0
 40
0.0
 40
0.0
 40
4.8860752186894727
 40
4.8860752186894727
 40
4.8860752186894727
 40
8.6102237526754575
 40
8.6102237526754575
 40
8.6102237526754575
 40
8.6102237526754575
 40
8.6102237526754575
 40
8.6102237526754575
 10
12.494864963388419
 20
100.83397459621557
 30
0.0
 10
12.15445744000262
 20
101.02067190851245
 30
0.0
 10
11.814465920575307
 20
101.18641754173871
 30
0.0
 10
11.47575465631779
 20
101.32817780344183
 30
0.0
 10
10.881129829927207
 20
101.53164623362588
 30
0.0
 10
10.290438994404072
 20
101.6489566577625
 30
0.0
 10
10.035526756999259
 20
101.68298196363591
 30
0.0
 10
9.7809030634216114
 20
101.69999461854287
 30
0.0
 10
9.5262793608664804
 20
101.69999461719571
 30
0.0
  0
SPLINE
  5
1A6
100
AcDbEntity
  8
0
370
    35
390
0
 62
     7
100
AcDbSpline
210
0.0
220
0.0
230
1.0
 70
     8
 71
     5
 72
    15
 73
     9
 74
     0
 42
0.0
 43
0.0
 40
8.6102237529706755
 40
8.6102237529706755
 40
8.6102237529706755
 40
8.6102237529706755
 40
8.6102237529706755
 40
8.6102237529706755
 40
12.334371554643496
 40
12.334371554643496
 40
12.334371554643496
 40
17.220448897441969
 40
17.220448897441969
 40
17.220448897441969
 40
17.220448897441969
 40
17.220448897441969
 40
17.220448897441969
 10
-9.5262795223909862
 20
101.69999461720062
 30
0.0
 10
-9.7809031748383291
 20
101.69999461585385
 30
0.0
 10
-10.035526836263346
 20
101.68298196494682
 30
0.0
 10
-10.290439059313224
 20
101.64895665919144
 30
0.0
 10
-10.881130072889221
 20
101.53164615932488
 30
0.0
 10
-11.475754888474226
 20
101.32817773986093
 30
0.0
 10
-11.814465624971058
 20
101.18641768585216
 30
0.0
 10
-12.154457292018375
 20
101.02067198967477
 30
0.0
 10
-12.494864963388528
 20
100.83397459621553
 30
0.0
  0
LINE
  5
1A7
100
AcDbEntity
  8
0
370
    35
390
0
 62
     7
100
AcDbLine
 10
12.5
 20
103.566025
 30
0.0
 11
12.49652
 21
103.566025
 31
0.0
210
0.0
220
0.0
230
1.0
  0
LINE
  5
1A8
100
AcDbEntity
  8
0
370
    35
390
0
 62
     7
100
AcDbLine
 10
6.557694
 20
103.566025
 30
0.0
 11
5.937171
 21
103.566025
 31
0.0
210
0.0
220
0.0
230
1.0
  0
SPLINE
  5
1A9
100
AcDbEntity
  8
0
370
    35
390
0
 62
     7
100
AcDbSpline
210
0.0
220
0.0
230
1.0
 70
     8
 71
     5
 72
    15
 73
     9
 74
     0
 42
0.0
 43
0.0
 40
8.6102237525495458
 40
8.6102237525495458
 40
8.6102237525495458
 40
8.6102237525495458
 40
8.6102237525495458
 40
8.6102237525495458
 40
12.334371554039665
 40
12.334371554039665
 40
12.334371554039665
 40
17.220448896725557
 40
17.220448896725557
 40
17.220448896725557
 40
17.220448896725557
 40
17.220448896725557
 40
17.220448896725557
 10
0.0000001615237109
 20
102.70000538280297
 30
0.0
 10
0.5092474664407111
 20
102.70000538415073
 30
0.0
 10
1.0184947893130682
 20
102.71701803505884
 30
0.0
 10
1.528319235419116
 20
102.75104334081441
 30
0.0
 10
2.70970126252899
 20
102.86835384067656
 30
0.0
 10
3.8989508936604489
 20
103.07182226013532
 30
0.0
 10
4.5763723667125813
 20
103.21358231415441
 30
0.0
 10
5.2563557007942201
 20
103.37932801032947
 30
0.0
 10
5.9371710435188367
 20
103.56602540378442
 30
0.0
  0
SPLINE
  5
1AA
100
AcDbEntity
  8
0
370
    35
390
0
 62
     7
100
AcDbSpline
210
0.0
220
0.0
230
1.0
 70
     8
 71
     5
 72
    15
 73
     9
 74
     0
 42
0.0
 43
0.0
 40
0.0
 40
0.0
 40
0.0
 40
0.0
 40
0.0
 40
0.0
 40
4.8860752184822136
 40
4.8860752184822136
 40
4.8860752184822136
 40
8.610223752478996
 40
8.610223752478996
 40
8.610223752478996
 40
8.610223752478996
 40
8.610223752478996
 40
8.610223752478996
 10
6.5576939198694157
 20
103.56602540378441
 30
0.0
 10
6.8981014432407752
 20
103.37932809149545
 30
0.0
 10
7.2380929626523587
 20
103.21358245827302
 30
0.0
 10
7.5768042269673348
 20
103.07182219654869
 30
0.0
 10
8.1714290533465874
 20
102.86835376637079
 30
0.0
 10
8.7621198888544587
 20
102.75104334223738
 30
0.0
 10
9.0170321262590427
 20
102.71701803636398
 30
0.0
 10
9.271655819836548
 20
102.700005381457
 30
0.0
 10
9.5262795223917376
 20
102.70000538280418
 30
0.0
  0
LINE
  5
1AB
100
AcDbEntity
  8
0
370
    35
390
0
 62
     7
100
AcDbLine
 10
12.49652
 20
103.566025
 30
0.0
 11
12.494865
 21
103.566025
 31
0.0
210
0.0
220
0.0
230
1.0
  0
SPLINE
  5
1AC
100
AcDbEntity
  8
0
370
    35
390
0
 62
     7
100
AcDbSpline
210
0.0
220
0.0
230
1.0
 70
     8
 71
     5
 72
    15
 73
     9
 74
     0
 42
0.0
 43
0.0
 40
8.610223752478996
 40
8.610223752478996
 40
8.610223752478996
 40
8.610223752478996
 40
8.610223752478996
 40
8.610223752478996
 40
12.33437155385216
 40
12.33437155385216
 40
12.33437155385216
 40
17.220448896448893
 40
17.220448896448893
 40
17.220448896448893
 40
17.220448896448893
 40
17.220448896448893
 40
17.220448896448893
 10
9.5262795223917376
 20
102.70000538280418
 30
0.0
 10
9.780903174856725
 20
102.70000538415135
 30
0.0
 10
10.035526836299397
 20
102.71701803505913
 30
0.0
 10
10.29043905935421
 20
102.75104334081523
 30
0.0
 10
10.881130072895955
 20
102.86835384068131
 30
0.0
 10
11.475754888446243
 20
103.07182226012702
 30
0.0
 10
11.8144656249977
 20
103.21358231416383
 30
0.0
 10
12.154457292032323
 20
103.37932801033293
 30
0.0
 10
12.494864963388421
 20
103.56602540378448
 30
0.0
  0
SPLINE
  5
1AD
100
AcDbEntity
  8
0
370
    35
390
0
 62
     7
100
AcDbSpline
210
0.0
220
0.0
230
1.0
 70
     8
 71
     5
 72
    15
 73
     9
 74
     0
 42
0.0
 43
0.0
 40
0.0
 40
0.0
 40
0.0
 40
0.0
 40
0.0
 40
0.0
 40
4.886075218441067
 40
4.886075218441067
 40
4.886075218441067
 40
8.6102237525495458
 40
8.6102237525495458
 40
8.6102237525495458
 40
8.6102237525495458
 40
8.6102237525495458
 40
8.6102237525495458
 10
-5.9371710435191201
 20
103.56602540378439
 30
0.0
 10
-5.2563559967821352
 20
103.379328091497
 30
0.0
 10
-4.5763729579660168
 20
103.21358245827147
 30
0.0
 10
-3.8989504293132375
 20
103.07182219654639
 30
0.0
 10
-2.7097007765426953
 20
102.8683537663678
 30
0.0
 10
-1.5283191055191498
 20
102.75104334223411
 30
0.0
 10
-1.0184946307142801
 20
102.71701803636127
 30
0.0
 10
-0.5092472435729666
 20
102.70000538145518
 30
0.0
 10
0.0000001615237109
 20
102.70000538280297
 30
0.0
  0
LINE
  5
1AE
100
AcDbEntity
  8
0
370
    35
390
0
 62
     7
100
AcDbLine
 10
-5.937171
 20
103.566025
 30
0.0
 11
-6.557694
 21
103.566025
 31
0.0
210
0.0
220
0.0
230
1.0
  0
SPLINE
  5
1AF
100
AcDbEntity
  8
0
370
    35
390
0
 62
     7
100
AcDbSpline
210
0.0
220
0.0
230
1.0
 70
     8
 71
     5
 72
    15
 73
     9
 74
     0
 42
0.0
 43
0.0
 40
8.6102237528990848
 40
8.6102237528990848
 40
8.6102237528990848
 40
8.6102237528990848
 40
8.6102237528990848
 40
8.6102237528990848
 40
12.334371554452311
 40
12.334371554452311
 40
12.334371554452311
 40
17.220448897234785
 40
17.220448897234785
 40
17.220448897234785
 40
17.220448897234785
 40
17.220448897234785
 40
17.220448897234785
 10
-9.5262793608681058
 20
102.70000538280367
 30
0.0
 10
-9.2716557084141566
 20
102.70000538415076
 30
0.0
 10
-9.0170320469823402
 20
102.71701803505778
 30
0.0
 10
-8.7621198239300107
 20
102.75104334081247
 30
0.0
 10
-8.1714288103596999
 20
102.8683538406766
 30
0.0
 10
-7.5768039947887402
 20
103.07182226013954
 30
0.0
 10
-7.2380932582874697
 20
103.21358231415083
 30
0.0
 10
-6.8981015912386141
 20
103.37932801032576
 30
0.0
 10
-6.5576939198695792
 20
103.56602540378439
 30
0.0
  0
LINE
  5
1B0
100
AcDbEntity
  8
0
370
    35
390
0
 62
     7
100
AcDbLine
 10
-12.494865
 20
103.566025
 30
0.0
 11
-12.5
 21
103.566025
 31
0.0
210
0.0
220
0.0
230
1.0
  0
SPLINE
  5
1B1
100
AcDbEntity
  8
0
370
    35
390
0
 62
     7
100
AcDbSpline
210
0.0
220
0.0
230
1.0
 70
     8
 71
     5
 72
    15
 73
     9
 74
     0
 42
0.0
 43
0.0
 40
0.0
 40
0.0
 40
0.0
 40
0.0
 40
0.0
 40
0.0
 40
4.8860752187275827
 40
4.8860752187275827
 40
4.8860752187275827
 40
8.6102237528990848
 40
8.6102237528990848
 40
8.6102237528990848
 40
8.6102237528990848
 40
8.6102237528990848
 40
8.6102237528990848
 10
-12.494864963388533
 20
103.56602540378441
 30
0.0
 10
-12.154457440000082
 20
103.37932809148607
 30
0.0
 10
-11.814465920570788
 20
103.2135824582557
 30
0.0
 10
-11.475754656323174
 20
103.07182219656424
 30
0.0
 10
-10.881129829917141
 20
102.86835376636694
 30
0.0
 10
-10.290438994378752
 20
102.75104334223489
 30
0.0
 10
-10.035526756977788
 20
102.7170180363629
 30
0.0
 10
-9.7809030634118841
 20
102.70000538145658
 30
0.0
 10
-9.5262793608681058
 20
102.70000538280367
 30
0.0
  0
LINE
  5
1B2
100
AcDbEntity
  8
0
370
    35
390
0
 62
     7
100
AcDbLine
 10
12.5
 20
105.633975
 30
0.0
 11
12.49652
 21
105.633975
 31
0.0
210
0.0
220
0.0
230
1.0
  0
LINE
  5
1B3
100
AcDbEntity
  8
0
370
    35
390
0
 62
     7
100
AcDbLine
 10
6.557694
 20
105.633975
 30
0.0
 11
5.937171
 21
105.633975
 31
0.0
210
0.0
220
0.0
230
1.0
  0
LINE
  5
1B4
100
AcDbEntity
  8
0
370
    35
390
0
 62
     7
100
AcDbLine
 10
5.937171
 20
103.566025
 30
0.0
 11
5.937171
 21
105.633975
 31
0.0
210
0.0
220
0.0
230
1.0
  0
LINE
  5
1B5
100
AcDbEntity
  8
0
370
    35
390
0
 62
     7
100
AcDbLine
 10
6.557694
 20
103.566025
 30
0.0
 11
6.557694
 21
105.633975
 31
0.0
210
0.0
220
0.0
230
1.0
  0
LINE
  5
1B6
100
AcDbEntity
  8
0
370
    35
390
0
 62
     7
100
AcDbLine
 10
12.49652
 20
105.633975
 30
0.0
 11
12.494865
 21
105.633975
 31
0.0
210
0.0
220
0.0
230
1.0
  0
LINE
  5
1B7
100
AcDbEntity
  8
0
370
    35
390
0
 62
     7
100
AcDbLine
 10
12.494865
 20
103.566025
 30
0.0
 11
12.494865
 21
105.633975
 31
0.0
210
0.0
220
0.0
230
1.0
  0
LINE
  5
1B8
100
AcDbEntity
  8
0
370
    35
390
0
 62
     7
100
AcDbLine
 10
-5.937171
 20
103.566025
 30
0.0
 11
-5.937171
 21
105.633975
 31
0.0
210
0.0
220
0.0
230
1.0
  0
LINE
  5
1B9
100
AcDbEntity
  8
0
370
    35
390
0
 62
     7
100
AcDbLine
 10
-5.937171
 20
105.633975
 30
0.0
 11
-6.557694
 21
105.633975
 31
0.0
210
0.0
220
0.0
230
1.0
  0
LINE
  5
1BA
100
AcDbEntity
  8
0
370
    35
390
0
 62
     7
100
AcDbLine
 10
-6.557694
 20
103.566025
 30
0.0
 11
-6.557694
 21
105.633975
 31
0.0
210
0.0
220
0.0
230
1.0
  0
LINE
  5
1BB
100
AcDbEntity
  8
0
370
    35
390
0
 62
     7
100
AcDbLine
 10
-12.494865
 20
105.633975
 30
0.0
 11
-12.5
 21
105.633975
 31
0.0
210
0.0
220
0.0
230
1.0
  0
LINE
  5
1BC
100
AcDbEntity
  8
0
370
    35
390
0
 62
     7
100
AcDbLine
 10
-12.494865
 20
103.566025
 30
0.0
 11
-12.494865
 21
105.633975
 31
0.0
210
0.0
220
0.0
230
1.0
  0
SPLINE
  5
1BD
100
AcDbEntity
  8
0
370
    35
390
0
 62
     7
100
AcDbSpline
210
0.0
220
0.0
230
1.0
 70
     8
 71
     5
 72
    15
 73
     9
 74
     0
 42
0.0
 43
0.0
 40
0.0
 40
0.0
 40
0.0
 40
0.0
 40
0.0
 40
0.0
 40
4.886075218558938
 40
4.886075218558938
 40
4.886075218558938
 40
8.6102236788375617
 40
8.6102236788375617
 40
8.6102236788375617
 40
8.6102236788375617
 40
8.6102236788375617
 40
8.6102236788375617
 10
-6.5576939198695774
 20
105.6339745962155
 30
0.0
 10
-6.8981014432462793
 20
105.82067190850739
 30
0.0
 10
-7.2380929626631918
 20
105.98641754173244
 30
0.0
 10
-7.5768042269568996
 20
106.12817780344746
 30
0.0
 10
-8.1714290482504808
 20
106.3316462318862
 30
0.0
 10
-8.7621198787399805
 20
106.44895665575372
 30
0.0
 10
-9.017032111119299
 20
106.48298196161457
 30
0.0
 10
-9.2716557996703379
 20
106.49999461719457
 30
0.0
 10
-9.5262794971818199
 20
106.49999461719459
 30
0.0
  0
SPLINE
  5
1BE
100
AcDbEntity
  8
0
370
    35
390
0
 62
     7
100
AcDbSpline
210
0.0
220
0.0
230
1.0
 70
     8
 71
     5
 72
    15
 73
     9
 74
     0
 42
0.0
 43
0.0
 40
8.6102236792407432
 40
8.6102236792407432
 40
8.6102236792407432
 40
8.6102236792407432
 40
8.6102236792407432
 40
8.6102236792407432
 40
12.334371554529165
 40
12.334371554529165
 40
12.334371554529165
 40
17.220448897382763
 40
17.220448897382763
 40
17.220448897382763
 40
17.220448897382763
 40
17.220448897382763
 40
17.220448897382763
 10
-0.0000001111182266
 20
106.49999461719617
 30
0.0
 10
-0.5092474261070666
 20
106.49999461719617
 30
0.0
 10
-1.018494759016991
 20
106.48298196696273
 30
0.0
 10
-1.5283192151673601
 20
106.44895666119635
 30
0.0
 10
-2.7097012523602229
 20
106.33164616106512
 30
0.0
 10
-3.8989508937057309
 20
106.1281777398565
 30
0.0
 10
-4.5763723666675107
 20
105.98641768585291
 30
0.0
 10
-5.2563557007711346
 20
105.82067198967685
 30
0.0
 10
-5.9371710435191183
 20
105.63397459621551
 30
0.0
  0
SPLINE
  5
1BF
100
AcDbEntity
  8
0
370
    35
390
0
 62
     7
100
AcDbSpline
210
0.0
220
0.0
230
1.0
 70
     8
 71
     5
 72
    15
 73
     9
 74
     0
 42
0.0
 43
0.0
 40
0.0
 40
0.0
 40
0.0
 40
0.0
 40
0.0
 40
0.0
 40
4.8860752187818051
 40
4.8860752187818051
 40
4.8860752187818051
 40
8.6102236792407432
 40
8.6102236792407432
 40
8.6102236792407432
 40
8.6102236792407432
 40
8.6102236792407432
 40
8.6102236792407432
 10
5.9371710435188385
 20
105.63397459621554
 30
0.0
 10
5.2563559967343769
 20
105.82067190851595
 30
0.0
 10
4.5763729578695722
 20
105.98641754174427
 30
0.0
 10
3.8989504294057427
 20
106.12817780343296
 30
0.0
 10
2.7097007867626837
 20
106.33164623189046
 30
0.0
 10
1.5283191257285302
 20
106.44895665575632
 30
0.0
 10
1.0184946609731012
 20
106.48298196161637
 30
0.0
 10
0.5092472838879824
 20
106.49999461719617
 30
0.0
 10
-0.0000001111182266
 20
106.49999461719617
 30
0.0
  0
SPLINE
  5
1C0
100
AcDbEntity
  8
0
370
    35
390
0
 62
     7
100
AcDbSpline
210
0.0
220
0.0
230
1.0
 70
     8
 71
     5
 72
    15
 73
     9
 74
     0
 42
0.0
 43
0.0
 40
8.6102236789243669
 40
8.6102236789243669
 40
8.6102236789243669
 40
8.6102236789243669
 40
8.6102236789243669
 40
8.6102236789243669
 40
12.334371554023228
 40
12.334371554023228
 40
12.334371554023228
 40
17.220448896840431
 40
17.220448896840431
 40
17.220448896840431
 40
17.220448896840431
 40
17.220448896840431
 40
17.220448896840431
 10
9.5262793860717334
 20
106.49999461719608
 30
0.0
 10
9.2716557285656034
 20
106.49999461719608
 30
0.0
 10
9.0170320620987354
 20
106.48298196696177
 30
0.0
 10
8.7621198340196802
 20
106.44895666119373
 30
0.0
 10
8.1714288154377712
 20
106.33164616105792
 30
0.0
 10
7.5768039947818027
 20
106.12817773986258
 30
0.0
 10
7.23809325829082
 20
105.98641768584751
 30
0.0
 10
6.8981015912408736
 20
105.82067198967552
 30
0.0
 10
6.5576939198694157
 20
105.63397459621555
 30
0.0
  0
SPLINE
  5
1C1
100
AcDbEntity
  8
0
370
    35
390
0
 62
     7
100
AcDbSpline
210
0.0
220
0.0
230
1.0
 70
     8
 71
     5
 72
    15
 73
     9
 74
     0
 42
0.0
 43
0.0
 40
0.0
 40
0.0
 40
0.0
 40
0.0
 40
0.0
 40
0.0
 40
4.8860752186602143
 40
4.8860752186602143
 40
4.8860752186602143
 40
8.6102236789243669
 40
8.6102236789243669
 40
8.6102236789243669
 40
8.6102236789243669
 40
8.6102236789243669
 40
8.6102236789243669
 10
12.494864963388421
 20
105.63397459621558
 30
0.0
 10
12.154457440004661
 20
105.82067190851134
 30
0.0
 10
11.814465920580709
 20
105.98641754173939
 30
0.0
 10
11.475754656315745
 20
106.12817780344339
 30
0.0
 10
10.881129835014949
 20
106.33164623188404
 30
0.0
 10
10.290439004520374
 20
106.44895665575376
 30
0.0
 10
10.035526772139917
 20
106.48298196161549
 30
0.0
 10
9.7809030835861943
 20
106.49999461719609
 30
0.0
 10
9.5262793860717334
 20
106.49999461719608
 30
0.0
  0
SPLINE
  5
1C2
100
AcDbEntity
  8
0
370
    35
390
0
 62
     7
100
AcDbSpline
210
0.0
220
0.0
230
1.0
 70
     8
 71
     5
 72
    15
 73
     9
 74
     0
 42
0.0
 43
0.0
 40
8.6102236788375617
 40
8.6102236788375617
 40
8.6102236788375617
 40
8.6102236788375617
 40
8.6102236788375617
 40
8.6102236788375617
 40
12.334371553985179
 40
12.334371553985179
 40
12.334371553985179
 40
17.220448896646833
 40
17.220448896646833
 40
17.220448896646833
 40
17.220448896646833
 40
17.220448896646833
 40
17.220448896646833
 10
-9.5262794971818199
 20
106.49999461719459
 30
0.0
 10
-9.7809031546873211
 20
106.4999946171946
 30
0.0
 10
-10.03552682115326
 20
106.48298196696058
 30
0.0
 10
-10.29043904923236
 20
106.44895666119338
 30
0.0
 10
-10.881130067805138
 20
106.3316461610633
 30
0.0
 10
-11.475754888455988
 20
106.12817773986708
 30
0.0
 10
-11.814465624989445
 20
105.98641768584488
 30
0.0
 10
-12.154457292027914
 20
105.82067198966955
 30
0.0
 10
-12.494864963388533
 20
105.63397459621552
 30
0.0
  0
LINE
  5
1C3
100
AcDbEntity
  8
0
370
    35
390
0
 62
     7
100
AcDbLine
 10
-10.3
 20
87.3
 30
0.0
 11
-10.3
 21
98.0
 31
0.0
210
0.0
220
0.0
230
1.0
  0
LINE
  5
1C4
100
AcDbEntity
  8
0
370
    35
390
0
 62
     7
100
AcDbLine
 10
10.3
 20
87.3
 30
0.0
 11
10.3
 21
98.0
 31
0.0
210
0.0
220
0.0
230
1.0
  0
LINE
  5
1C5
100
AcDbEntity
  8
0
370
    35
390
0
 62
     7
100
AcDbLine
 10
-9.0
 20
86.0
 30
0.0
 11
-10.3
 21
87.3
 31
0.0
210
0.0
220
0.0
230
1.0
  0
LINE
  5
1C6
100
AcDbEntity
  8
0
370
    35
390
0
 62
     7
100
AcDbLine
 10
9.0
 20
86.0
 30
0.0
 11
10.3
 21
87.3
 31
0.0
210
0.0
220
0.0
230
1.0
  0
ARC
  5
1C7
100
AcDbEntity
  8
0
370
    35
390
0
 62
     7
100
AcDbCircle
 10
-10.5
 20
102.2
 30
0.0
 40
0.5
210
0.0
220
0.0
230
1.0
100
AcDbArc
 50
270.0
 51
90.0
  0
ARC
  5
1C8
100
AcDbEntity
  8
0
370
    35
390
0
 62
     7
100
AcDbCircle
 10
10.5
 20
102.2
 30
0.0
 40
0.5
210
0.0
220
0.0
230
1.0
100
AcDbArc
 50
90.0
 51
270.0
  0
LINE
  5
1C9
100
AcDbEntity
  8
0
370
    35
390
0
 62
     7
100
AcDbLine
 10
11.0
 20
98.0
 30
0.0
 11
12.5
 21
98.866025
 31
0.0
210
0.0
220
0.0
230
1.0
  0
LINE
  5
1CA
100
AcDbEntity
  8
0
370
    35
390
0
 62
     7
100
AcDbLine
 10
-11.0
 20
98.0
 30
0.0
 11
-12.5
 21
98.866025
 31
0.0
210
0.0
220
0.0
230
1.0
  0
LINE
  5
1CB
100
AcDbEntity
  8
0
370
    35
390
0
 62
     7
100
AcDbLine
 10
12.5
 20
98.866025
 30
0.0
 11
12.5
 21
100.833975
 31
0.0
210
0.0
220
0.0
230
1.0
  0
LINE
  5
1CC
100
AcDbEntity
  8
0
370
    35
390
0
 62
     7
100
AcDbLine
 10
-12.5
 20
98.866025
 30
0.0
 11
-12.5
 21
100.833975
 31
0.0
210
0.0
220
0.0
230
1.0
  0
LINE
  5
1CD
100
AcDbEntity
  8
0
370
    35
390
0
 62
     7
100
AcDbLine
 10
11.0
 20
101.7
 30
0.0
 11
12.5
 21
100.833975
 31
0.0
210
0.0
220
0.0
230
1.0
  0
LINE
  5
1CE
100
AcDbEntity
  8
0
370
    35
390
0
 62
     7
100
AcDbLine
 10
-11.0
 20
101.7
 30
0.0
 11
-12.5
 21
100.833975
 31
0.0
210
0.0
220
0.0
230
1.0
  0
LINE
  5
1CF
100
AcDbEntity
  8
0
370
    35
390
0
 62
     7
100
AcDbLine
 10
11.0
 20
102.7
 30
0.0
 11
12.5
 21
103.566025
 31
0.0
210
0.0
220
0.0
230
1.0
  0
LINE
  5
1D0
100
AcDbEntity
  8
0
370
    35
390
0
 62
     7
100
AcDbLine
 10
-11.0
 20
102.7
 30
0.0
 11
-12.5
 21
103.566025
 31
0.0
210
0.0
220
0.0
230
1.0
  0
LINE
  5
1D1
100
AcDbEntity
  8
0
370
    35
390
0
 62
     7
100
AcDbLine
 10
12.5
 20
103.566025
 30
0.0
 11
12.5
 21
105.633975
 31
0.0
210
0.0
220
0.0
230
1.0
  0
LINE
  5
1D2
100
AcDbEntity
  8
0
370
    35
390
0
 62
     7
100
AcDbLine
 10
-12.5
 20
103.566025
 30
0.0
 11
-12.5
 21
105.633975
 31
0.0
210
0.0
220
0.0
230
1.0
  0
LINE
  5
1D3
100
AcDbEntity
  8
0
370
    35
390
0
 62
     7
100
AcDbLine
 10
11.0
 20
106.5
 30
0.0
 11
12.5
 21
105.633975
 31
0.0
210
0.0
220
0.0
230
1.0
  0
LINE
  5
1D4
100
AcDbEntity
  8
0
370
    35
390
0
 62
     7
100
AcDbLine
 10
-11.0
 20
106.5
 30
0.0
 11
-12.5
 21
105.633975
 31
0.0
210
0.0
220
0.0
230
1.0
  0
LINE
  5
1D5
100
AcDbEntity
  8
0
370
    35
390
0
 62
     7
100
AcDbLine
 10
-0.243045
 20
95.5
 30
0.0
 11
-10.3
 21
95.5
 31
0.0
210
0.0
220
0.0
230
1.0
  0
LINE
  5
1D6
100
AcDbEntity
  8
0
370
    35
390
0
 62
     7
100
AcDbLine
 10
10.3
 20
95.5
 30
0.0
 11
-0.243045
 21
95.5
 31
0.0
210
0.0
220
0.0
230
1.0
  0
LINE
  5
1D7
100
AcDbEntity
  8
0
370
    13
390
0
 62
     7
100
AcDbLine
 10
9.27
 20
95.5
 30
0.0
 11
9.27
 21
87.3
 31
0.0
210
0.0
220
0.0
230
1.0
  0
LINE
  5
1D8
100
AcDbEntity
  8
0
370
    13
390
0
 62
     7
100
AcDbLine
 10
9.27
 20
86.272582
 30
0.0
 11
9.27
 21
87.3
 31
0.0
210
0.0
220
0.0
230
1.0
  0
LINE
  5
1D9
100
AcDbEntity
  8
0
370
    13
390
0
 62
     7
100
AcDbLine
 10
9.27
 20
86.2721
 30
0.0
 11
9.27
 21
86.270792
 31
0.0
210
0.0
220
0.0
230
1.0
  0
LINE
  5
1DA
100
AcDbEntity
  8
0
370
    13
390
0
 62
     7
100
AcDbLine
 10
-9.27
 20
86.270246
 30
0.0
 11
-9.27
 21
87.3
 31
0.0
210
0.0
220
0.0
230
1.0
  0
LINE
  5
1DB
100
AcDbEntity
  8
0
370
    13
390
0
 62
     7
100
AcDbLine
 10
-9.27
 20
95.5
 30
0.0
 11
-9.27
 21
87.3
 31
0.0
210
0.0
220
0.0
230
1.0
  0
LINE
  5
1DC
100
AcDbEntity
  8
0
370
    13
390
0
 62
     7
100
AcDbLine
 10
9.27
 20
95.5
 30
0.0
 11
10.3
 21
97.284012
 31
0.0
210
0.0
220
0.0
230
1.0
  0
LINE
  5
1DD
100
AcDbEntity
  8
0
370
    13
390
0
 62
     7
100
AcDbLine
 10
-9.27
 20
95.5
 30
0.0
 11
-10.3
 21
97.284012
 31
0.0
210
0.0
220
0.0
230
1.0
  0
LINE
  5
1DE
100
AcDbEntity
  8
0
370
    13
390
0
 62
     7
100
AcDbLine
 10
5.998329
 20
4.5
 30
0.0
 11
-6.0
 21
4.5
 31
0.0
210
0.0
220
0.0
230
1.0
  0
LINE
  5
1DF
100
AcDbEntity
  8
0
370
    13
390
0
 62
     7
100
AcDbLine
 10
6.0
 20
4.5
 30
0.0
 11
5.998329
 21
4.5
 31
0.0
210
0.0
220
0.0
230
1.0
  0
LINE
  5
1E0
100
AcDbEntity
  8
0
370
    35
390
0
 62
     7
100
AcDbLine
 10
-6.0
 20
4.5
 30
0.0
 11
-6.0
 21
85.0
 31
0.0
210
0.0
220
0.0
230
1.0
  0
LINE
  5
1E1
100
AcDbEntity
  8
0
370
    35
390
0
 62
     7
100
AcDbLine
 10
6.0
 20
4.5
 30
0.0
 11
6.0
 21
85.0
 31
0.0
210
0.0
220
0.0
230
1.0
  0
ARC
  5
1E2
100
AcDbEntity
  8
0
370
    35
390
0
 62
     7
100
AcDbCircle
 10
0.0
 20
4.5
 30
0.0
 40
6.0
210
0.0
220
0.0
230
1.0
100
AcDbArc
 50
180.0
 51
270.0
  0
ARC
  5
1E3
100
AcDbEntity
  8
0
370
    35
390
0
 62
     7
100
AcDbCircle
 10
0.0
 20
4.5
 30
0.0
 40
6.0
210
0.0
220
0.0
230
1.0
100
AcDbArc
 50
270.0
 51
360.0
  0
LINE
  5
1E4
100
AcDbEntity
  8
0
370
    35
390
0
 62
     7
100
AcDbLine
 10
6.0
 20
85.0
 30
0.0
 11
5.998329
 21
85.0
 31
0.0
210
0.0
220
0.0
230
1.0
  0
LINE
  5
1E5
100
AcDbEntity
  8
0
370
    35
390
0
 62
     7
100
AcDbLine
 10
5.998329
 20
85.0
 30
0.0
 11
-6.0
 21
85.0
 31
0.0
210
0.0
220
0.0
230
1.0
  0
LINE
  5
1E6
100
AcDbEntity
  8
0
370
    35
390
0
 62
     7
100
AcDbLine
 10
7.0
 20
86.0
 30
0.0
 11
6.998051
 21
86.0
 31
0.0
210
0.0
220
0.0
230
1.0
  0
LINE
  5
1E7
100
AcDbEntity
  8
0
370
    35
390
0
 62
     7
100
AcDbLine
 10
6.998051
 20
86.0
 30
0.0
 11
-7.0
 21
86.0
 31
0.0
210
0.0
220
0.0
230
1.0
  0
ARC
  5
1E8
100
AcDbEntity
  8
0
370
    35
390
0
 62
     7
100
AcDbCircle
 10
7.0
 20
85.0
 30
0.0
 40
1.0
210
0.0
220
0.0
230
1.0
100
AcDbArc
 50
90.0
 51
180.0
  0
ARC
  5
1E9
100
AcDbEntity
  8
0
370
    35
390
0
 62
     7
100
AcDbCircle
 10
-7.0
 20
85.0
 30
0.0
 40
1.0
210
0.0
220
0.0
230
1.0
100
AcDbArc
 50
360.0
 51
90.0
  0
ENDBLK
  5
1EA
100
AcDbEntity
  8
0
390
0
100
AcDbBlockEnd
  0
ENDSEC
  0
SECTION
  2
ENTITIES
  0
VIEWPORT
  5
77
100
AcDbEntity
 67
     1
  8
0
370
     0
390
0
 62
     0
 48
0.0
100
AcDbViewport
 10
0.0
 20
0.0
 30
0.0
 40
1000.0
 41
1000.0
 68
     1
 69
     1
 12
0.0
 22
0.0
 13
0.0
 23
0.0
 14
1.0
 24
1.0
 15
1.0
 25
1.0
 16
0.0
 26
0.0
 36
1.0
 17
0.0
 27
0.0
 37
0.0
 42
50.0
 43
0.0
 44
0.0
 45
1000.0
 50
0.0
 51
0.0
 72
   100
 90
        0
340
0
  1

281
     0
 71
     0
 74
     1
110
0.0
120
0.0
130
0.0
111
1.0
121
0.0
131
0.0
112
0.0
122
1.0
132
0.0
345
0
346
0
 79
     0
146
0.0
  0
LINE
  5
27
100
AcDbEntity
  8
0
370
    35
390
0
 62
     7
100
AcDbLine
 10
0.0
 20
0.0
 30
0.0
 11
210.0
 21
0.0
 31
0.0
210
0.0
220
0.0
230
1.0
  0
LINE
  5
28
100
AcDbEntity
  8
0
370
    35
390
0
 62
     7
100
AcDbLine
 10
210.0
 20
0.0
 30
0.0
 11
210.0
 21
297.0
 31
0.0
210
0.0
220
0.0
230
1.0
  0
LINE
  5
29
100
AcDbEntity
  8
0
370
    35
390
0
 62
     7
100
AcDbLine
 10
210.0
 20
297.0
 30
0.0
 11
0.0
 21
297.0
 31
0.0
210
0.0
220
0.0
230
1.0
  0
LINE
  5
2A
100
AcDbEntity
  8
0
370
    35
390
0
 62
     7
100
AcDbLine
 10
0.0
 20
297.0
 30
0.0
 11
0.0
 21
0.0
 31
0.0
210
0.0
220
0.0
230
1.0
  0
LINE
  5
2B
100
AcDbEntity
  8
0
370
    35
390
0
 62
     7
100
AcDbLine
 10
20.0
 20
10.0
 30
0.0
 11
200.0
 21
10.0
 31
0.0
210
0.0
220
0.0
230
1.0
  0
LINE
  5
2C
100
AcDbEntity
  8
0
370
    35
390
0
 62
     7
100
AcDbLine
 10
200.0
 20
10.0
 30
0.0
 11
200.0
 21
287.0
 31
0.0
210
0.0
220
0.0
230
1.0
  0
LINE
  5
2D
100
AcDbEntity
  8
0
370
    35
390
0
 62
     7
100
AcDbLine
 10
200.0
 20
287.0
 30
0.0
 11
20.0
 21
287.0
 31
0.0
210
0.0
220
0.0
230
1.0
  0
LINE
  5
2E
100
AcDbEntity
  8
0
370
    35
390
0
 62
     7
100
AcDbLine
 10
20.0
 20
287.0
 30
0.0
 11
20.0
 21
10.0
 31
0.0
210
0.0
220
0.0
230
1.0
  0
LINE
  5
2F
100
AcDbEntity
  8
0
370
    13
390
0
 62
     7
100
AcDbLine
 10
155.0
 20
287.0
 30
0.0
 11
155.0
 21
291.0
 31
0.0
210
0.0
220
0.0
230
1.0
  0
LINE
  5
30
100
AcDbEntity
  8
0
370
    13
390
0
 62
     7
100
AcDbLine
 10
200.0
 20
240.833333
 30
0.0
 11
204.0
 21
240.833333
 31
0.0
210
0.0
220
0.0
230
1.0
  0
LINE
  5
31
100
AcDbEntity
  8
0
370
    13
390
0
 62
     7
100
AcDbLine
 10
200.0
 20
194.666667
 30
0.0
 11
204.0
 21
194.666667
 31
0.0
210
0.0
220
0.0
230
1.0
  0
LINE
  5
32
100
AcDbEntity
  8
0
370
    13
390
0
 62
     7
100
AcDbLine
 10
200.0
 20
148.5
 30
0.0
 11
204.0
 21
148.5
 31
0.0
210
0.0
220
0.0
230
1.0
  0
LINE
  5
33
100
AcDbEntity
  8
0
370
    13
390
0
 62
     7
100
AcDbLine
 10
200.0
 20
102.333333
 30
0.0
 11
204.0
 21
102.333333
 31
0.0
210
0.0
220
0.0
230
1.0
  0
LINE
  5
34
100
AcDbEntity
  8
0
370
    13
390
0
 62
     7
100
AcDbLine
 10
200.0
 20
56.166667
 30
0.0
 11
204.0
 21
56.166667
 31
0.0
210
0.0
220
0.0
230
1.0
  0
LINE
  5
35
100
AcDbEntity
  8
0
370
    13
390
0
 62
     7
100
AcDbLine
 10
110.0
 20
291.0
 30
0.0
 11
110.0
 21
287.0
 31
0.0
210
0.0
220
0.0
230
1.0
  0
LINE
  5
36
100
AcDbEntity
  8
0
370
    13
390
0
 62
     7
100
AcDbLine
 10
65.0
 20
287.0
 30
0.0
 11
65.0
 21
291.0
 31
0.0
210
0.0
220
0.0
230
1.0
  0
LINE
  5
37
100
AcDbEntity
  8
0
370
    13
390
0
 62
     7
100
AcDbLine
 10
16.0
 20
102.333333
 30
0.0
 11
20.0
 21
102.333333
 31
0.0
210
0.0
220
0.0
230
1.0
  0
LINE
  5
38
100
AcDbEntity
  8
0
370
    13
390
0
 62
     7
100
AcDbLine
 10
16.0
 20
56.166667
 30
0.0
 11
20.0
 21
56.166667
 31
0.0
210
0.0
220
0.0
230
1.0
  0
LINE
  5
39
100
AcDbEntity
  8
0
370
    13
390
0
 62
     7
100
AcDbLine
 10
16.0
 20
194.666667
 30
0.0
 11
20.0
 21
194.666667
 31
0.0
210
0.0
220
0.0
230
1.0
  0
LINE
  5
3A
100
AcDbEntity
  8
0
370
    13
390
0
 62
     7
100
AcDbLine
 10
16.0
 20
148.5
 30
0.0
 11
20.0
 21
148.5
 31
0.0
210
0.0
220
0.0
230
1.0
  0
LINE
  5
3B
100
AcDbEntity
  8
0
370
    13
390
0
 62
     7
100
AcDbLine
 10
16.0
 20
240.833333
 30
0.0
 11
20.0
 21
240.833333
 31
0.0
210
0.0
220
0.0
230
1.0
  0
LINE
  5
3C
100
AcDbEntity
  8
0
370
    13
390
0
 62
     7
100
AcDbLine
 10
155.0
 20
6.0
 30
0.0
 11
155.0
 21
10.0
 31
0.0
210
0.0
220
0.0
230
1.0
  0
LINE
  5
3D
100
AcDbEntity
  8
0
370
    13
390
0
 62
     7
100
AcDbLine
 10
110.0
 20
10.0
 30
0.0
 11
110.0
 21
6.0
 31
0.0
210
0.0
220
0.0
230
1.0
  0
LINE
  5
3E
100
AcDbEntity
  8
0
370
    13
390
0
 62
     7
100
AcDbLine
 10
65.0
 20
6.0
 30
0.0
 11
65.0
 21
10.0
 31
0.0
210
0.0
220
0.0
230
1.0
  0
LINE
  5
3F
100
AcDbEntity
  8
0
370
    13
390
0
 62
     7
100
AcDbLine
 10
16.0
 20
148.5
 30
0.0
 11
6.0
 21
148.5
 31
0.0
210
0.0
220
0.0
230
1.0
  0
LINE
  5
40
100
AcDbEntity
  8
0
370
    13
390
0
 62
     7
100
AcDbLine
 10
200.0
 20
287.0
 30
0.0
 11
204.0
 21
291.0
 31
0.0
210
0.0
220
0.0
230
1.0
  0
LINE
  5
41
100
AcDbEntity
  8
0
370
    13
390
0
 62
     7
100
AcDbLine
 10
20.0
 20
287.0
 30
0.0
 11
16.0
 21
291.0
 31
0.0
210
0.0
220
0.0
230
1.0
  0
LINE
  5
42
100
AcDbEntity
  8
0
370
    13
390
0
 62
     7
100
AcDbLine
 10
16.0
 20
291.0
 30
0.0
 11
204.0
 21
291.0
 31
0.0
210
0.0
220
0.0
230
1.0
  0
LINE
  5
43
100
AcDbEntity
  8
0
370
    13
390
0
 62
     7
100
AcDbLine
 10
204.0
 20
6.0
 30
0.0
 11
204.0
 21
291.0
 31
0.0
210
0.0
220
0.0
230
1.0
  0
LINE
  5
44
100
AcDbEntity
  8
0
370
    13
390
0
 62
     7
100
AcDbLine
 10
204.0
 20
6.0
 30
0.0
 11
16.0
 21
6.0
 31
0.0
210
0.0
220
0.0
230
1.0
  0
LINE
  5
45
100
AcDbEntity
  8
0
370
    13
390
0
 62
     7
100
AcDbLine
 10
16.0
 20
291.0
 30
0.0
 11
16.0
 21
6.0
 31
0.0
210
0.0
220
0.0
230
1.0
  0
LINE
  5
46
100
AcDbEntity
  8
0
370
    13
390
0
 62
     7
100
AcDbLine
 10
20.0
 20
10.0
 30
0.0
 11
16.0
 21
6.0
 31
0.0
210
0.0
220
0.0
230
1.0
  0
LINE
  5
47
100
AcDbEntity
  8
0
370
    13
390
0
 62
     7
100
AcDbLine
 10
200.0
 20
10.0
 30
0.0
 11
204.0
 21
10.0
 31
0.0
210
0.0
220
0.0
230
1.0
  0
LINE
  5
48
100
AcDbEntity
  8
0
370
    13
390
0
 62
     7
100
AcDbLine
 10
200.0
 20
10.0
 30
0.0
 11
200.0
 21
6.0
 31
0.0
210
0.0
220
0.0
230
1.0
  0
LINE
  5
49
100
AcDbEntity
  8
0
370
    35
390
0
 62
     7
100
AcDbLine
 10
20.0
 20
31.5
 30
0.0
 11
20.0
 21
10.0
 31
0.0
210
0.0
220
0.0
230
1.0
  0
LINE
  5
4A
100
AcDbEntity
  8
0
370
    35
390
0
 62
     7
100
AcDbLine
 10
71.0
 20
31.5
 30
0.0
 11
71.0
 21
10.0
 31
0.0
210
0.0
220
0.0
230
1.0
  0
LINE
  5
4B
100
AcDbEntity
  8
0
370
    13
390
0
 62
   252
100
AcDbLine
 10
148.312393
 20
18.5
 30
0.0
 11
199.5
 21
18.5
 31
0.0
210
0.0
220
0.0
230
1.0
  0
LINE
  5
4C
100
AcDbEntity
  8
0
370
    35
390
0
 62
     7
100
AcDbLine
 10
147.812393
 20
18.0
 30
0.0
 11
147.812393
 21
31.5
 31
0.0
210
0.0
220
0.0
230
1.0
  0
LINE
  5
4D
100
AcDbEntity
  8
0
370
    35
390
0
 62
     7
100
AcDbLine
 10
20.0
 20
31.5
 30
0.0
 11
200.0
 21
31.5
 31
0.0
210
0.0
220
0.0
230
1.0
  0
LINE
  5
4E
100
AcDbEntity
  8
0
370
    35
390
0
 62
     7
100
AcDbLine
 10
147.812393
 20
31.5
 30
0.0
 11
200.0
 21
31.5
 31
0.0
210
0.0
220
0.0
230
1.0
  0
LINE
  5
4F
100
AcDbEntity
  8
0
370
    35
390
0
 62
     7
100
AcDbLine
 10
147.812393
 20
18.0
 30
0.0
 11
198.5
 21
18.0
 31
0.0
210
0.0
220
0.0
230
1.0
  0
LINE
  5
50
100
AcDbEntity
  8
0
370
    35
390
0
 62
     7
100
AcDbLine
 10
187.0
 20
18.0
 30
0.0
 11
200.0
 21
18.0
 31
0.0
210
0.0
220
0.0
230
1.0
  0
LINE
  5
51
100
AcDbEntity
  8
0
370
    13
390
0
 62
     7
100
AcDbLine
 10
148.312393
 20
31.0
 30
0.0
 11
199.5
 21
31.0
 31
0.0
210
0.0
220
0.0
230
1.0
  0
LINE
  5
52
100
AcDbEntity
  8
0
370
    13
390
0
 62
     7
100
AcDbLine
 10
199.5
 20
31.0
 30
0.0
 11
199.5
 21
18.5
 31
0.0
210
0.0
220
0.0
230
1.0
  0
LINE
  5
53
100
AcDbEntity
  8
0
370
    13
390
0
 62
     7
100
AcDbLine
 10
148.312393
 20
18.5
 30
0.0
 11
148.312393
 21
31.0
 31
0.0
210
0.0
220
0.0
230
1.0
  0
LINE
  5
54
100
AcDbEntity
  8
0
370
    35
390
0
 62
     7
100
AcDbLine
 10
147.812393
 20
18.0
 30
0.0
 11
71.0
 21
18.0
 31
0.0
210
0.0
220
0.0
230
1.0
  0
LINE
  5
55
100
AcDbEntity
  8
0
370
    35
390
0
 62
     7
100
AcDbLine
 10
20.0
 20
10.0
 30
0.0
 11
200.0
 21
10.0
 31
0.0
210
0.0
220
0.0
230
1.0
  0
LINE
  5
56
100
AcDbEntity
  8
0
370
    35
390
0
 62
     7
100
AcDbLine
 10
200.0
 20
10.0
 30
0.0
 11
200.0
 21
31.5
 31
0.0
210
0.0
220
0.0
230
1.0
  0
DIMENSION
  5
58
100
AcDbEntity
  8
0
370
     0
390
0
 62
     0
100
AcDbDimension
  2
*D30
 10
91.306682
 20
221.422365
 30
0.0
 11
108.806682
 21
221.422365
 31
0.0
 70
   161
 71
     5
 72
     1
 41
1.0
 42
0.0
210
0.0
220
0.0
230
1.0
 52
89.999523
  1
%%c<>
  3
STANDARD
100
AcDbAlignedDimension
 13
126.306682
 23
209.888742
 33
0.0
 14
91.306682
 24
209.888742
 34
0.0
  0
DIMENSION
  5
5A
100
AcDbEntity
  8
0
370
     0
390
0
 62
     0
100
AcDbDimension
  2
*D31
 10
116.074526
 20
87.434746
 30
0.0
 11
108.806682
 21
87.434746
 31
0.0
 70
   161
 71
     5
 72
     1
 41
1.0
 42
0.0
210
0.0
220
0.0
230
1.0
 52
89.999523
  1
%%c<>
  3
STANDARD
100
AcDbAlignedDimension
 13
101.538838
 23
104.388742
 33
0.0
 14
116.074526
 24
104.388742
 34
0.0
  0
DIMENSION
  5
5C
100
AcDbEntity
  8
0
370
     0
390
0
 62
     0
100
AcDbDimension
  2
*D32
 10
79.970893
 20
213.388742
 30
0.0
 11
79.970893
 21
155.888742
 31
0.0
 70
   160
 71
     5
 72
     1
 41
1.0
 42
0.0
210
0.0
220
0.0
230
1.0
 52
89.999523
  3
STANDARD
100
AcDbAlignedDimension
 13
108.806682
 23
98.388742
 33
0.0
 14
108.806682
 24
213.388742
 34
0.0
 50
89.999523
100
AcDbRotatedDimension
  0
LINE
  5
5D
100
AcDbEntity
  8
0
370
    13
390
0
  6
DASHDOT
 62
     7
 48
0.145996
100
AcDbLine
 10
108.806682
 20
210.875398
 30
0.0
 11
108.806682
 21
205.035562
 31
0.0
210
0.0
220
0.0
230
1.0
  0
LINE
  5
5E
100
AcDbEntity
  8
0
370
    13
390
0
  6
DASHDOT
 62
     7
100
AcDbLine
 10
108.806682
 20
208.19137
 30
0.0
 11
108.806682
 21
94.95214
 31
0.0
210
0.0
220
0.0
230
1.0
  0
LINE
  5
5F
100
AcDbEntity
  8
0
370
    13
390
0
  6
DASHDOT
 62
     7
 48
0.081977
100
AcDbLine
 10
108.806682
 20
203.728021
 30
0.0
 11
108.806682
 21
200.448961
 31
0.0
210
0.0
220
0.0
230
1.0
  0
LINE
  5
60
100
AcDbEntity
  8
0
370
    13
390
0
  6
DASHDOT
 62
     7
 48
0.180346
100
AcDbLine
 10
105.199756
 20
209.888742
 30
0.0
 11
112.413608
 21
209.888742
 31
0.0
210
0.0
220
0.0
230
1.0
  0
LINE
  5
61
100
AcDbEntity
  8
0
370
    13
390
0
  6
DASHSPACE
 62
     7
100
AcDbLine
 10
101.538838
 20
104.388742
 30
0.0
 11
101.538838
 21
184.888742
 31
0.0
210
0.0
220
0.0
230
1.0
  0
ARC
  5
62
100
AcDbEntity
  8
0
370
    13
390
0
  6
DASHSPACE
 62
     7
100
AcDbCircle
 10
108.806682
 20
104.388742
 30
0.0
 40
7.267844
210
0.0
220
0.0
230
1.0
100
AcDbArc
 50
180.0
 51
237.601009
  0
LINE
  5
63
100
AcDbEntity
  8
0
370
    13
390
0
  6
DASHSPACE
 62
     7
 48
0.043585
100
AcDbLine
 10
104.912485
 20
98.25223
 30
0.0
 11
104.912485
 21
96.508842
 31
0.0
210
0.0
220
0.0
230
1.0
  0
LINE
  5
64
100
AcDbEntity
  8
0
370
    13
390
0
  6
DASHSPACE
 62
     7
 48
0.043585
100
AcDbLine
 10
112.70088
 20
98.25223
 30
0.0
 11
112.70088
 21
96.508842
 31
0.0
210
0.0
220
0.0
230
1.0
  0
ARC
  5
65
100
AcDbEntity
  8
0
370
    13
390
0
  6
DASHSPACE
 62
     7
100
AcDbCircle
 10
108.806682
 20
104.388742
 30
0.0
 40
7.267844
210
0.0
220
0.0
230
1.0
100
AcDbArc
 50
302.398991
 51
360.0
  0
LINE
  5
66
100
AcDbEntity
  8
0
370
    13
390
0
  6
DASHSPACE
 62
     7
100
AcDbLine
 10
116.074526
 20
104.388742
 30
0.0
 11
116.074526
 21
184.888742
 31
0.0
210
0.0
220
0.0
230
1.0
  0
LINE
  5
67
100
AcDbEntity
  8
0
370
    35
390
0
 62
     7
100
AcDbLine
 10
114.806682
 20
104.388742
 30
0.0
 11
114.806682
 21
184.888742
 31
0.0
210
0.0
220
0.0
230
1.0
  0
ARC
  5
68
100
AcDbEntity
  8
0
370
    35
390
0
 62
     7
100
AcDbCircle
 10
108.806682
 20
104.388742
 30
0.0
 40
6.0
210
0.0
220
0.0
230
1.0
100
AcDbArc
 50
302.398991
 51
360.0
  0
LINE
  5
69
100
AcDbEntity
  8
0
370
    35
390
0
 62
     7
100
AcDbLine
 10
112.021554
 20
99.322718
 30
0.0
 11
111.433036
 21
98.949248
 31
0.0
210
0.0
220
0.0
230
1.0
  0
LINE
  5
6A
100
AcDbEntity
  8
0
370
    13
390
0
  6
DASHSPACE
 62
     7
 48
0.06101
100
AcDbLine
 10
111.433036
 20
98.949248
 30
0.0
 11
111.433036
 21
96.508842
 31
0.0
210
0.0
220
0.0
230
1.0
  0
LINE
  5
6B
100
AcDbEntity
  8
0
370
    13
390
0
  6
DASHSPACE
 62
     7
 48
0.031696
100
AcDbLine
 10
116.074526
 20
184.888742
 30
0.0
 11
114.806682
 21
184.888742
 31
0.0
210
0.0
220
0.0
230
1.0
  0
LINE
  5
6C
100
AcDbEntity
  8
0
370
    13
390
0
  6
DASHSPACE
 62
     7
 48
0.031696
100
AcDbLine
 10
111.433036
 20
96.508842
 30
0.0
 11
112.70088
 21
96.508842
 31
0.0
210
0.0
220
0.0
230
1.0
  0
LINE
  5
6D
100
AcDbEntity
  8
0
370
    13
390
0
  6
DASHSPACE
 62
     7
 48
0.06101
100
AcDbLine
 10
106.180329
 20
98.949248
 30
0.0
 11
106.180329
 21
96.508842
 31
0.0
210
0.0
220
0.0
230
1.0
  0
LINE
  5
6E
100
AcDbEntity
  8
0
370
    13
390
0
  6
DASHSPACE
 62
     7
 48
0.017425
100
AcDbLine
 10
105.591811
 20
99.322718
 30
0.0
 11
106.180329
 21
98.949248
 31
0.0
210
0.0
220
0.0
230
1.0
  0
ARC
  5
6F
100
AcDbEntity
  8
0
370
    13
390
0
  6
DASHSPACE
 62
     7
100
AcDbCircle
 10
108.806682
 20
104.388742
 30
0.0
 40
6.0
210
0.0
220
0.0
230
1.0
100
AcDbArc
 50
180.0
 51
237.601009
  0
LINE
  5
70
100
AcDbEntity
  8
0
370
    13
390
0
  6
DASHSPACE
 62
     7
100
AcDbLine
 10
102.806682
 20
104.388742
 30
0.0
 11
102.806682
 21
184.888742
 31
0.0
210
0.0
220
0.0
230
1.0
  0
LINE
  5
71
100
AcDbEntity
  8
0
370
    13
390
0
  6
DASHSPACE
 62
     7
 48
0.031696
100
AcDbLine
 10
104.912485
 20
96.508842
 30
0.0
 11
106.180329
 21
96.508842
 31
0.0
210
0.0
220
0.0
230
1.0
  0
LINE
  5
72
100
AcDbEntity
  8
0
370
    13
390
0
  6
DASHSPACE
 62
     7
 48
0.031696
100
AcDbLine
 10
101.538838
 20
184.888742
 30
0.0
 11
102.806682
 21
184.888742
 31
0.0
210
0.0
220
0.0
230
1.0
  0
ARC
  5
73
100
AcDbEntity
  8
0
370
    13
390
0
 62
     7
100
AcDbCircle
 10
108.806682
 20
104.388742
 30
0.0
 40
6.0
210
0.0
220
0.0
230
1.0
100
AcDbArc
 50
302.398991
 51
360.0
  0
LINE
  5
74
100
AcDbEntity
  8
0
370
    13
390
0
 62
     7
100
AcDbLine
 10
114.806682
 20
104.388742
 30
0.0
 11
114.806682
 21
184.888742
 31
0.0
210
0.0
220
0.0
230
1.0
  0
ARC
  5
75
100
AcDbEntity
  8
0
370
    13
390
0
 62
     7
100
AcDbCircle
 10
108.806682
 20
104.388742
 30
0.0
 40
6.0
210
0.0
220
0.0
230
1.0
100
AcDbArc
 50
180.0
 51
237.601009
  0
LINE
  5
76
100
AcDbEntity
  8
0
370
    13
390
0
 62
     7
100
AcDbLine
 10
102.806682
 20
104.388742
 30
0.0
 11
102.806682
 21
184.888742
 31
0.0
210
0.0
220
0.0
230
1.0
  0
INSERT
  5
1EB
100
AcDbEntity
  8
0
370
     0
390
0
100
AcDbBlockReference
  2
BLOCK34
 10
0.0
 20
0.0
 30
0.0
210
0.0
220
0.0
230
1.0
  0
INSERT
  5
1EC
100
AcDbEntity
  8
0
370
     0
390
0
100
AcDbBlockReference
  2
BLOCK35
 10
0.0
 20
0.0
 30
0.0
210
0.0
220
0.0
230
1.0
  0
INSERT
  5
1ED
100
AcDbEntity
  8
0
370
     0
390
0
100
AcDbBlockReference
  2
BLOCK36
 10
0.0
 20
0.0
 30
0.0
210
0.0
220
0.0
230
1.0
  0
INSERT
  5
1EE
100
AcDbEntity
  8
0
370
     0
390
0
100
AcDbBlockReference
  2
BLOCK37
 10
0.0
 20
0.0
 30
0.0
210
0.0
220
0.0
230
1.0
  0
INSERT
  5
1EF
100
AcDbEntity
  8
0
370
     0
390
0
100
AcDbBlockReference
  2
BLOCK38
 10
0.0
 20
0.0
 30
0.0
210
0.0
220
0.0
230
1.0
  0
INSERT
  5
1F0
100
AcDbEntity
  8
0
370
     0
390
0
100
AcDbBlockReference
  2
BLOCK39
 10
0.0
 20
0.0
 30
0.0
210
0.0
220
0.0
230
1.0
  0
INSERT
  5
1F1
100
AcDbEntity
  8
0
370
     0
390
0
100
AcDbBlockReference
  2
BLOCK40
 10
0.0
 20
0.0
 30
0.0
210
0.0
220
0.0
230
1.0
  0
INSERT
  5
1F2
100
AcDbEntity
  8
0
370
     0
390
0
100
AcDbBlockReference
  2
BLOCK41
 10
0.0
 20
0.0
 30
0.0
210
0.0
220
0.0
230
1.0
  0
INSERT
  5
1F3
100
AcDbEntity
  8
0
370
     0
390
0
100
AcDbBlockReference
  2
BLOCK42
 10
0.0
 20
0.0
 30
0.0
210
0.0
220
0.0
230
1.0
  0
INSERT
  5
1F4
100
AcDbEntity
  8
0
370
     0
390
0
100
AcDbBlockReference
  2
BLOCK43
 10
0.0
 20
0.0
 30
0.0
210
0.0
220
0.0
230
1.0
  0
INSERT
  5
1F5
100
AcDbEntity
  8
0
370
     0
390
0
100
AcDbBlockReference
  2
BLOCK44
 10
0.0
 20
0.0
 30
0.0
210
0.0
220
0.0
230
1.0
  0
INSERT
  5
1F6
100
AcDbEntity
  8
0
370
     0
390
0
100
AcDbBlockReference
  2
BLOCK45
 10
0.0
 20
0.0
 30
0.0
210
0.0
220
0.0
230
1.0
  0
INSERT
  5
1F7
100
AcDbEntity
  8
0
370
     0
390
0
100
AcDbBlockReference
  2
BLOCK46
 10
0.0
 20
0.0
 30
0.0
210
0.0
220
0.0
230
1.0
  0
INSERT
  5
1F8
100
AcDbEntity
  8
0
370
     0
390
0
100
AcDbBlockReference
  2
BLOCK47
 10
0.0
 20
0.0
 30
0.0
210
0.0
220
0.0
230
1.0
  0
INSERT
  5
1F9
100
AcDbEntity
  8
0
370
     0
390
0
100
AcDbBlockReference
  2
BLOCK48
 10
0.0
 20
0.0
 30
0.0
210
0.0
220
0.0
230
1.0
  0
INSERT
  5
1FA
100
AcDbEntity
  8
0
370
     0
390
0
100
AcDbBlockReference
  2
BLOCK49
 10
0.0
 20
0.0
 30
0.0
210
0.0
220
0.0
230
1.0
  0
INSERT
  5
1FB
100
AcDbEntity
  8
0
370
     0
390
0
100
AcDbBlockReference
  2
BLOCK50
 10
0.0
 20
0.0
 30
0.0
210
0.0
220
0.0
230
1.0
  0
INSERT
  5
1FC
100
AcDbEntity
  8
0
370
     0
390
0
100
AcDbBlockReference
  2
BLOCK51
 10
0.0
 20
0.0
 30
0.0
210
0.0
220
0.0
230
1.0
  0
INSERT
  5
1FD
100
AcDbEntity
  8
0
370
     0
390
0
100
AcDbBlockReference
  2
BLOCK52
 10
0.0
 20
0.0
 30
0.0
210
0.0
220
0.0
230
1.0
  0
INSERT
  5
1FE
100
AcDbEntity
  8
0
370
     0
390
0
100
AcDbBlockReference
  2
BLOCK53
 10
0.0
 20
0.0
 30
0.0
210
0.0
220
0.0
230
1.0
  0
INSERT
  5
1FF
100
AcDbEntity
  8
0
370
     0
390
0
100
AcDbBlockReference
  2
BLOCK54
 10
0.0
 20
0.0
 30
0.0
210
0.0
220
0.0
230
1.0
  0
INSERT
  5
200
100
AcDbEntity
  8
0
370
     0
390
0
100
AcDbBlockReference
  2
BLOCK55
 10
0.0
 20
0.0
 30
0.0
210
0.0
220
0.0
230
1.0
  0
INSERT
  5
201
100
AcDbEntity
  8
0
370
     0
390
0
100
AcDbBlockReference
  2
BLOCK56
 10
0.0
 20
0.0
 30
0.0
210
0.0
220
0.0
230
1.0
  0
INSERT
  5
202
100
AcDbEntity
  8
0
370
     0
390
0
100
AcDbBlockReference
  2
BLOCK57
 10
0.0
 20
0.0
 30
0.0
210
0.0
220
0.0
230
1.0
  0
INSERT
  5
203
100
AcDbEntity
  8
0
370
     0
390
0
100
AcDbBlockReference
  2
BLOCK58
 10
0.0
 20
0.0
 30
0.0
210
0.0
220
0.0
230
1.0
  0
INSERT
  5
204
100
AcDbEntity
  8
0
370
     0
390
0
100
AcDbBlockReference
  2
BLOCK59
 10
0.0
 20
0.0
 30
0.0
210
0.0
220
0.0
230
1.0
  0
INSERT
  5
205
100
AcDbEntity
  8
0
370
     0
390
0
100
AcDbBlockReference
  2
BLOCK60
 10
0.0
 20
0.0
 30
0.0
210
0.0
220
0.0
230
1.0
  0
INSERT
  5
206
100
AcDbEntity
  8
0
370
     0
390
0
100
AcDbBlockReference
  2
BLOCK61
 10
0.0
 20
0.0
 30
0.0
210
0.0
220
0.0
230
1.0
  0
INSERT
  5
207
100
AcDbEntity
  8
0
370
     0
390
0
100
AcDbBlockReference
  2
BLOCK62
 10
0.0
 20
0.0
 30
0.0
210
0.0
220
0.0
230
1.0
  0
INSERT
  5
208
100
AcDbEntity
  8
0
370
     0
390
0
100
AcDbBlockReference
  2
BLOCK63
 10
108.806682
 20
99.888742
 30
0.0
210
0.0
220
0.0
230
1.0
  0
INSERT
  5
209
100
AcDbEntity
  8
0
370
     0
390
0
100
AcDbBlockReference
  2
BLOCK64
 10
108.806682
 20
99.888742
 30
0.0
210
0.0
220
0.0
230
1.0
  0
INSERT
  5
20A
100
AcDbEntity
  8
0
370
     0
390
0
100
AcDbBlockReference
  2
BLOCK65
 10
108.806682
 20
99.888742
 30
0.0
210
0.0
220
0.0
230
1.0
  0
INSERT
  5
20B
100
AcDbEntity
  8
0
370
     0
390
0
100
AcDbBlockReference
  2
BLOCK66
 10
108.806682
 20
99.888742
 30
0.0
210
0.0
220
0.0
230
1.0
  0
ENDSEC
  0
SECTION
  2
OBJECTS
  0
DICTIONARY
  5
19
100
AcDbDictionary
280
     0
281
     1
  3
ACAD_GROUP
350
1A
  3
ACAD_MLINESTYLE
350
1B
  3
ACAD_LAYOUT
350
1E
  3
ACAD_PLOTSETTINGS
350
22
  3
ACAD_PLOTSTYLENAME
350
1F
  3
ACAD_WIPEOUT_VARS
350
23
  0
DICTIONARY
  5
1A
102
{ACAD_REACTORS
330
19
102
}
100
AcDbDictionary
280
     0
281
     1
  0
DICTIONARY
  5
1B
102
{ACAD_REACTORS
330
19
102
}
100
AcDbDictionary
280
     0
281
     1
  3
Standard
350
1C
  0
MLINESTYLE
  5
1C
102
{ACAD_REACTORS
330
1B
102
}
100
AcDbMlineStyle
  2
Standard
 70
     0
  3

 62
     0
 51
90.0
 52
90.0
 71
     2
 49
0.5
 62
   256
  6
ByLayer
 49
-0.5
 62
   256
  6
ByLayer
  0
ACDBDICTIONARYWDFLT
  5
1F
102
{ACAD_REACTORS
330
19
102
}
100
AcDbDictionary
281
     1
  3
Normal
350
1D
100
AcDbDictionaryWithDefault
340
1D
  0
ACDBPLACEHOLDER
  5
1D
102
{ACAD_REACTORS
330
1F
102
}
  0
LAYOUT
  5
20
102
{ACAD_REACTORS
330
1E
102
}
100
AcDbPlotSettings
  1

  2

  4

  6

 40
0.0
 41
0.0
 42
0.0
 43
0.0
 44
0.0
 45
0.0
 46
0.0
 47
0.0
 48
0.0
 49
0.0
140
0.0
141
0.0
142
1.0
143
1.0
 70
  1024
 72
     0
 73
     0
 74
     0
  7

 75
     0
147
1.0
148
0.0
149
0.0
100
AcDbLayout
  1
Model
 70
     0
 71
     0
 10
0.0
 20
0.0
 11
0.0
 21
0.0
 12
0.0
 22
0.0
 32
0.0
 14
0.0
 24
0.0
 34
0.0
 15
0.0
 25
0.0
 35
0.0
146
0.0
 13
0.0
 23
0.0
 33
0.0
 16
0.0
 26
0.0
 36
0.0
 17
0.0
 27
0.0
 37
0.0
 76
     0
330
A
331
0
345
0
346
0
  0
LAYOUT
  5
21
102
{ACAD_REACTORS
330
1E
102
}
100
AcDbPlotSettings
  1

  2

  4

  6

 40
0.0
 41
0.0
 42
0.0
 43
0.0
 44
0.0
 45
0.0
 46
0.0
 47
0.0
 48
0.0
 49
0.0
140
0.0
141
0.0
142
1.0
143
1.0
 70
     0
 72
     0
 73
     0
 74
     0
  7

 75
     0
147
1.0
148
0.0
149
0.0
100
AcDbLayout
  1
Layout1
 70
     0
 71
     0
 10
0.0
 20
0.0
 11
0.0
 21
0.0
 12
0.0
 22
0.0
 32
0.0
 14
0.0
 24
0.0
 34
0.0
 15
0.0
 25
0.0
 35
0.0
146
0.0
 13
0.0
 23
0.0
 33
0.0
 16
0.0
 26
0.0
 36
0.0
 17
0.0
 27
0.0
 37
0.0
 76
     0
330
B
331
0
345
0
346
0
  0
DICTIONARY
  5
1E
102
{ACAD_REACTORS
330
19
102
}
100
AcDbDictionary
280
     0
281
     1
  3
Layout1
350
21
  3
Model
350
20
  0
DICTIONARY
  5
22
102
{ACAD_REACTORS
330
19
102
}
100
AcDbDictionary
280
     0
281
     1
  0
WIPEOUTVARIABLES
  5
23
100
AcDbWipeoutVariables
 70
     1
  0
ENDSEC
  0
EOF
