  0
SECTION
  2
HEADER
  9
$ACADVER
  1
AC1015
  9
$ACADMAINTVER
 70
     6
  9
$DWGCODEPAGE
  3
ANSI_1252
  9
$INSBASE
 10
0.0
 20
0.0
 30
0.0
  9
$EXTMIN
 10
0.0
 20
0.0
 30
0.0
  9
$EXTMAX
 10
222.50589
 20
291.887451
 30
2.0
  9
$LIMMIN
 10
0.0
 20
0.0
  9
$LIMMAX
 10
420.0
 20
297.0
  9
$ORTHOMODE
 70
     0
  9
$REGENMODE
 70
     1
  9
$FILLMODE
 70
     1
  9
$QTEXTMODE
 70
     0
  9
$MIRRTEXT
 70
     1
  9
$LTSCALE
 40
1.0
  9
$ATTMODE
 70
     1
  9
$TEXTSIZE
 40
2.5
  9
$TRACEWID
 40
1.0
  9
$TEXTSTYLE
  7
STANDARD
  9
$CLAYER
  8
0
  9
$CELTYPE
  6
ByLayer
  9
$CECOLOR
 62
   256
  9
$CELTSCALE
 40
1.0
  9
$DISPSILH
 70
     0
  9
$DIMSCALE
 40
1.0
  9
$DIMASZ
 40
2.5
  9
$DIMEXO
 40
0.625
  9
$DIMDLI
 40
3.75
  9
$DIMRND
 40
0.0
  9
$DIMDLE
 40
0.0
  9
$DIMEXE
 40
1.25
  9
$DIMTP
 40
0.0
  9
$DIMTM
 40
0.0
  9
$DIMTXT
 40
2.5
  9
$DIMCEN
 40
2.5
  9
$DIMTSZ
 40
0.0
  9
$DIMTOL
 70
     0
  9
$DIMLIM
 70
     0
  9
$DIMTIH
 70
     0
  9
$DIMTOH
 70
     0
  9
$DIMSE1
 70
     0
  9
$DIMSE2
 70
     0
  9
$DIMTAD
 70
     1
  9
$DIMZIN
 70
     8
  9
$DIMBLK
  1

  9
$DIMASO
 70
     1
  9
$DIMSHO
 70
     1
  9
$DIMPOST
  1

  9
$DIMAPOST
  1

  9
$DIMALT
 70
     0
  9
$DIMALTD
 70
     3
  9
$DIMALTF
 40
0.03937
  9
$DIMLFAC
 40
1.0
  9
$DIMTOFL
 70
     1
  9
$DIMTVP
 40
0.0
  9
$DIMTIX
 70
     0
  9
$DIMSOXD
 70
     0
  9
$DIMSAH
 70
     0
  9
$DIMBLK1
  1

  9
$DIMBLK2
  1

  9
$DIMSTYLE
  2
STANDARD
  9
$DIMCLRD
 70
     0
  9
$DIMCLRE
 70
     0
  9
$DIMCLRT
 70
     0
  9
$DIMTFAC
 40
1.0
  9
$DIMGAP
 40
0.625
  9
$DIMJUST
 70
     0
  9
$DIMSD1
 70
     0
  9
$DIMSD2
 70
     0
  9
$DIMTOLJ
 70
     0
  9
$DIMTZIN
 70
     8
  9
$DIMALTZ
 70
     0
  9
$DIMALTTZ
 70
     0
  9
$DIMUPT
 70
     0
  9
$DIMDEC
 70
     2
  9
$DIMTDEC
 70
     2
  9
$DIMALTU
 70
     2
  9
$DIMALTTD
 70
     3
  9
$DIMTXSTY
  7
STANDARD
  9
$DIMAUNIT
 70
     0
  9
$DIMADEC
 70
     0
  9
$DIMALTRND
 40
0.0
  9
$DIMAZIN
 70
     0
  9
$DIMDSEP
 70
    44
  9
$DIMATFIT
 70
     0
  9
$DIMFRAC
 70
     0
  9
$DIMLDRBLK
  1

  9
$DIMLUNIT
 70
     2
  9
$DIMLWD
 70
    -2
  9
$DIMLWE
 70
    -2
  9
$DIMTMOVE
 70
     0
  9
$LUNITS
 70
     2
  9
$LUPREC
 70
     4
  9
$SKETCHINC
 40
1.0
  9
$FILLETRAD
 40
2.5
  9
$AUNITS
 70
     0
  9
$AUPREC
 70
     0
  9
$MENU
  1
.
  9
$ELEVATION
 40
0.0
  9
$PELEVATION
 40
0.0
  9
$THICKNESS
 40
0.0
  9
$LIMCHECK
 70
     0
  9
$CHAMFERA
 40
2.5
  9
$CHAMFERB
 40
2.5
  9
$CHAMFERC
 40
0.0
  9
$CHAMFERD
 40
0.0
  9
$SKPOLY
 70
     0
  9
$TDCREATE
 40
0.000000000
  9
$TDUCREATE
 40
0.000000000
  9
$TDUPDATE
 40
0.000000000
  9
$TDUUPDATE
 40
0.000000000
  9
$TDINDWG
 40
0.0000000000
  9
$TDUSRTIMER
 40
0.0000000000
  9
$USRTIMER
 70
     1
  9
$ANGBASE
 50
0.0
  9
$ANGDIR
 70
     0
  9
$PDMODE
 70
     0
  9
$PDSIZE
 40
0.0
  9
$PLINEWID
 40
0.0
  9
$SPLFRAME
 70
     0
  9
$SPLINETYPE
 70
     6
  9
$SPLINESEGS
 70
     8
  9
$HANDSEED
  5
1F9
  9
$SURFTAB1
 70
     6
  9
$SURFTAB2
 70
     6
  9
$SURFTYPE
 70
     6
  9
$SURFU
 70
     6
  9
$SURFV
 70
     6
  9
$UCSBASE
  2

  9
$UCSNAME
  2

  9
$UCSORG
 10
0.0
 20
0.0
 30
0.0
  9
$UCSXDIR
 10
1.0
 20
0.0
 30
0.0
  9
$UCSYDIR
 10
0.0
 20
1.0
 30
0.0
  9
$UCSORTHOREF
  2

  9
$UCSORTHOVIEW
 70
     1
  9
$UCSORGTOP
 10
0.0
 20
0.0
 30
0.0
  9
$UCSORGBOTTOM
 10
0.0
 20
0.0
 30
0.0
  9
$UCSORGLEFT
 10
0.0
 20
0.0
 30
0.0
  9
$UCSORGRIGHT
 10
0.0
 20
0.0
 30
0.0
  9
$UCSORGFRONT
 10
0.0
 20
0.0
 30
0.0
  9
$UCSORGBACK
 10
0.0
 20
0.0
 30
0.0
  9
$PUCSBASE
  2

  9
$PUCSNAME
  2

  9
$PUCSORG
 10
0.0
 20
0.0
 30
0.0
  9
$PUCSXDIR
 10
1.0
 20
0.0
 30
0.0
  9
$PUCSYDIR
 10
0.0
 20
1.0
 30
0.0
  9
$PUCSORTHOREF
  2

  9
$PUCSORTHOVIEW
 70
     0
  9
$PUCSORGTOP
 10
0.0
 20
0.0
 30
0.0
  9
$PUCSORGBOTTOM
 10
0.0
 20
0.0
 30
0.0
  9
$PUCSORGLEFT
 10
0.0
 20
0.0
 30
0.0
  9
$PUCSORGRIGHT
 10
0.0
 20
0.0
 30
0.0
  9
$PUCSORGFRONT
 10
0.0
 20
0.0
 30
0.0
  9
$PUCSORGBACK
 10
0.0
 20
0.0
 30
0.0
  9
$USERI1
 70
     0
  9
$USERI2
 70
     0
  9
$USERI3
 70
     0
  9
$USERI4
 70
     0
  9
$USERI5
 70
     0
  9
$USERR1
 40
0.0
  9
$USERR2
 40
0.0
  9
$USERR3
 40
0.0
  9
$USERR4
 40
0.0
  9
$USERR5
 40
0.0
  9
$WORLDVIEW
 70
     1
  9
$SHADEDGE
 70
     3
  9
$SHADEDIF
 70
    70
  9
$TILEMODE
 70
     1
  9
$MAXACTVP
 70
    48
  9
$PINSBASE
 10
0.0
 20
0.0
 30
0.0
  9
$PLIMCHECK
 70
     0
  9
$PEXTMIN
 10
0.0
 20
0.0
 30
0.0
  9
$PEXTMAX
 10
222.50589
 20
291.887451
 30
2.0
  9
$PLIMMIN
 10
0.0
 20
0.0
  9
$PLIMMAX
 10
420.0
 20
297.0
  9
$UNITMODE
 70
     0
  9
$VISRETAIN
 70
     0
  9
$PLINEGEN
 70
     0
  9
$PSLTSCALE
 70
     1
  9
$TREEDEPTH
 70
  3020
  9
$CMLSTYLE
  2
Standard
  9
$CMLJUST
 70
     0
  9
$CMLSCALE
 40
20.0
  9
$PROXYGRAPHICS
 70
     1
  9
$MEASUREMENT
 70
     1
  9
$CELWEIGHT
370
    -1
  9
$ENDCAPS
280
     0
  9
$JOINSTYLE
280
     0
  9
$LWDISPLAY
290
     0
  9
$INSUNITS
 70
     0
  9
$HYPERLINKBASE
  1

  9
$STYLESHEET
  1

  9
$XEDIT
290
     1
  9
$CEPSNTYPE
380
     0
  9
$PSTYLEMODE
290
     0
  9
$FINGERPRINTGUID
  2

  9
$VERSIONGUID
  2

  9
$EXTNAMES
290
     0
  9
$PSVPSCALE
 40
0.0
  0
ENDSEC
  0
SECTION
  2
CLASSES
  0
CLASS
  1
LWPOLYLINE
  2
AcDbPolyline
  3
AutoCAD 2000
 90
        0
280
     0
281
     1
  0
CLASS
  1
IMAGE
  2
AcDbRasterImage
  3
ISM
 90
      127
280
     0
281
     1
  0
CLASS
  1
OLE2FRAME
  2
AcDbOle2Frame
  3
AutoCAD 2000
 90
        0
280
     0
281
     1
  0
CLASS
  1
HATCH
  2
AcDbHatch
  3
AutoCAD 2000
 90
        0
280
     0
281
     1
  0
CLASS
  1
DICTIONARYVAR
  2
AcDbDictionaryVar
  3
AutoCAD 2000
 90
        0
280
     0
281
     0
  0
CLASS
  1
RASTERVARIABLES
  2
AcDbRasterVariables
  3
ISM
 90
        0
280
     0
281
     0
  0
CLASS
  1
IMAGEDEF
  2
AcDbRasterImageDef
  3
ISM
 90
        0
280
     0
281
     0
  0
CLASS
  1
IMAGEDEF_REACTOR
  2
AcDbRasterImageDefReactor
  3
ISM
 90
        1
280
     0
281
     0
  0
CLASS
  1
IDBUFFER
  2
AcDbIdBuffer
  3
AutoCAD 2000
 90
        0
280
     0
281
     0
  0
CLASS
  1
SPATIAL_FILTER
  2
AcDbSpatialFilter
  3
AutoCAD 2000
 90
        0
280
     0
281
     0
  0
CLASS
  1
XRECORD
  2
AcDbXrecord
  3
AutoCAD 2000
 90
        0
280
     0
281
     0
  0
CLASS
  1
SORTENTSTABLE
  2
AcDbSortentsTable
  3
AutoCAD 2000
 90
        0
280
     0
281
     0
  0
CLASS
  1
LAYER_INDEX
  2
AcDbLayerIndex
  3
AutoCAD 2000
 90
        0
280
     0
281
     0
  0
CLASS
  1
SPATIAL_INDEX
  2
AcDbSpatialIndex
  3
AutoCAD 2000
 90
        0
280
     0
281
     0
  0
CLASS
  1
OBJECT_PTR
  2
CAseDLPNTableRecord
  3
"ASE-LPNTableRecord"
 90
        1
280
     0
281
     0
  0
CLASS
  1
LAYOUT
  2
AcDbLayout
  3
AutoCAD 2000
 90
        0
280
     0
281
     0
  0
CLASS
  1
PLOTSETTINGS
  2
AcDbPlotSettings
  3
AutoCAD 2000
 90
        0
280
     0
281
     0
  0
CLASS
  1
ACDBDICTIONARYWDFLT
  2
AcDbDictionaryWithDefault
  3
AutoCAD 2000
 90
        0
280
     0
281
     0
  0
CLASS
  1
ACDBPLACEHOLDER
  2
AcDbPlaceHolder
  3
AutoCAD 2000
 90
        0
280
     0
281
     0
  0
CLASS
  1
VBA_PROJECT
  2
AcDbVbaProject
  3
acadvba
 90
        0
280
     0
281
     0
  0
CLASS
  1
WIPEOUT
  2
AcDbWipeout
  3
WipeOut|AutoCAD Express Tool|expresstools@autodesk.com
 90
      127
280
     0
281
     1
  0
CLASS
  1
WIPEOUTVARIABLES
  2
AcDbWipeoutVariables
  3
WipeOut|AutoCAD Express Tool|expresstools@autodesk.com
 90
        0
280
     0
281
     0
  0
CLASS
  1
RTEXT
  2
RText
  3
RText|AutoCAD Express Tool|expresstools@autodesk.com
 90
        0
280
     0
281
     1
  0
CLASS
  1
ARCALIGNEDTEXT
  2
AcDbArcAlignedText
  3
ATEXT|AutoCAD Express Tool|expresstools@autodesk.com
 90
        0
280
     0
281
     1
  0
ENDSEC
  0
SECTION
  2
TABLES
  0
TABLE
  2
VPORT
  5
7
100
AcDbSymbolTable
 70
     1
  0
VPORT
  5
15
100
AcDbSymbolTableRecord
100
AcDbViewportTableRecord
  2
*ACTIVE
 70
     0
 10
0.0
 20
0.0
 11
1.0
 21
1.0
 12
6.591288
 22
4.579184
 13
0.0
 23
0.0
 14
1.0
 24
1.0
 15
0.0
 25
0.0
 16
0.0
 26
0.0
 36
1.0
 17
0.0
 27
0.0
 37
0.0
 40
9.158369
 41
0.688564
 42
50.0
 43
0.0
 44
0.0
 50
0.0
 51
0.0
 71
     0
 72
   100
 73
     1
 74
     1
 75
     0
 76
     0
 77
     0
 78
     0
281
     0
 65
     0
110
0.0
120
0.0
130
0.0
111
1.0
121
0.0
131
0.0
112
0.0
122
1.0
132
0.0
345
0
346
0
 79
     0
146
0.0
  0
ENDTAB
  0
TABLE
  2
LTYPE
  5
4
100
AcDbSymbolTable
 70
     3
  0
LTYPE
  5
11
100
AcDbSymbolTableRecord
100
AcDbLinetypeTableRecord
  2
ByBlock
 70
    64
  3

 72
    65
 73
     0
 40
0.0
  0
LTYPE
  5
12
100
AcDbSymbolTableRecord
100
AcDbLinetypeTableRecord
  2
ByLayer
 70
    64
  3

 72
    65
 73
     0
 40
0.0
  0
LTYPE
  5
13
100
AcDbSymbolTableRecord
100
AcDbLinetypeTableRecord
  2
Continuous
 70
    64
  3
Solid line
 72
    65
 73
     0
 40
0.0
  0
ENDTAB
  0
TABLE
  2
LAYER
  5
2
100
AcDbSymbolTable
 70
     1
  0
LAYER
  5
14
100
AcDbSymbolTableRecord
100
AcDbLayerTableRecord
  2
0
 70
     0
 62
     7
  6
Continuous
290
     1
370
    13
390
1D
  0
ENDTAB
  0
TABLE
  2
STYLE
  5
3
100
AcDbSymbolTable
 70
     2
  0
STYLE
  5
17
100
AcDbSymbolTableRecord
100
AcDbTextStyleTableRecord
  2
STANDARD
 70
     0
 40
0.0
 41
1.0
 50
0.0
 71
     0
 42
0.0
  3
isocp.shx
  4

  0
STYLE
  5
24
100
AcDbSymbolTableRecord
100
AcDbTextStyleTableRecord
  2
GDT
 70
     0
 40
0.0
 41
1.0
 50
0.0
 71
     0
 42
0.0
  3
gdt.shx
  4

  0
ENDTAB
  0
TABLE
  2
VIEW
  5
5
100
AcDbSymbolTable
 70
     0
  0
ENDTAB
  0
TABLE
  2
UCS
  5
6
100
AcDbSymbolTable
 70
     0
  0
ENDTAB
  0
TABLE
  2
APPID
  5
8
100
AcDbSymbolTable
 70
     1
  0
APPID
  5
16
100
AcDbSymbolTableRecord
100
AcDbRegAppTableRecord
  2
ACAD
 70
     0
  0
ENDTAB
  0
TABLE
  2
DIMSTYLE
  5
9
100
AcDbSymbolTable
 70
     1
100
AcDbDimStyleTable
 71
     0
  0
DIMSTYLE
105
18
100
AcDbSymbolTableRecord
100
AcDbDimStyleTableRecord
  2
STANDARD
 70
     0
  3

  4

 40
1.0
 41
2.5
 42
0.625
 43
3.75
 44
1.25
 45
0.0
 46
0.0
 47
0.0
 48
0.0
 71
     0
 72
     0
 73
     0
 74
     0
 75
     0
 76
     0
 77
     1
 78
     8
 79
     0
140
2.5
141
2.5
142
0.0
143
0.03937
144
1.0
145
0.0
146
1.0
147
0.625
148
0.0
170
     0
171
     3
172
     1
173
     0
174
     0
175
     0
176
     0
177
     0
178
     0
179
     0
271
     2
272
     2
273
     2
274
     3
275
     0
276
     0
277
     2
278
    44
279
     0
280
     0
281
     0
282
     0
283
     0
284
     8
285
     0
286
     0
288
     0
289
     0
340
0
341
0
342
0
343
0
344
0
371
    -2
372
    -2
  0
ENDTAB
  0
TABLE
  2
BLOCK_RECORD
  5
1
100
AcDbSymbolTable
 70
    33
  0
BLOCK_RECORD
  5
A
100
AcDbSymbolTableRecord
100
AcDbBlockTableRecord
  2
*MODEL_SPACE
340
20
  0
BLOCK_RECORD
  5
B
100
AcDbSymbolTableRecord
100
AcDbBlockTableRecord
  2
*PAPER_SPACE
340
21
  0
BLOCK_RECORD
  5
5C
100
AcDbSymbolTableRecord
100
AcDbBlockTableRecord
  2
BLOCK1
340
0
102
{BLKREFS
331
1DB
102
}
  0
BLOCK_RECORD
  5
5D
100
AcDbSymbolTableRecord
100
AcDbBlockTableRecord
  2
BLOCK2
340
0
102
{BLKREFS
331
1DC
102
}
  0
BLOCK_RECORD
  5
5E
100
AcDbSymbolTableRecord
100
AcDbBlockTableRecord
  2
BLOCK3
340
0
102
{BLKREFS
331
1DD
102
}
  0
BLOCK_RECORD
  5
5F
100
AcDbSymbolTableRecord
100
AcDbBlockTableRecord
  2
BLOCK4
340
0
102
{BLKREFS
331
1DE
102
}
  0
BLOCK_RECORD
  5
60
100
AcDbSymbolTableRecord
100
AcDbBlockTableRecord
  2
BLOCK5
340
0
102
{BLKREFS
331
1DF
102
}
  0
BLOCK_RECORD
  5
61
100
AcDbSymbolTableRecord
100
AcDbBlockTableRecord
  2
BLOCK6
340
0
102
{BLKREFS
331
1E0
102
}
  0
BLOCK_RECORD
  5
62
100
AcDbSymbolTableRecord
100
AcDbBlockTableRecord
  2
BLOCK7
340
0
102
{BLKREFS
331
1E1
102
}
  0
BLOCK_RECORD
  5
63
100
AcDbSymbolTableRecord
100
AcDbBlockTableRecord
  2
BLOCK8
340
0
102
{BLKREFS
331
1E2
102
}
  0
BLOCK_RECORD
  5
64
100
AcDbSymbolTableRecord
100
AcDbBlockTableRecord
  2
BLOCK9
340
0
102
{BLKREFS
331
1E3
102
}
  0
BLOCK_RECORD
  5
65
100
AcDbSymbolTableRecord
100
AcDbBlockTableRecord
  2
BLOCK10
340
0
102
{BLKREFS
331
1E4
102
}
  0
BLOCK_RECORD
  5
66
100
AcDbSymbolTableRecord
100
AcDbBlockTableRecord
  2
BLOCK11
340
0
102
{BLKREFS
331
1E5
102
}
  0
BLOCK_RECORD
  5
67
100
AcDbSymbolTableRecord
100
AcDbBlockTableRecord
  2
BLOCK12
340
0
102
{BLKREFS
331
1E6
102
}
  0
BLOCK_RECORD
  5
68
100
AcDbSymbolTableRecord
100
AcDbBlockTableRecord
  2
BLOCK13
340
0
102
{BLKREFS
331
1E7
102
}
  0
BLOCK_RECORD
  5
69
100
AcDbSymbolTableRecord
100
AcDbBlockTableRecord
  2
BLOCK14
340
0
102
{BLKREFS
331
1E8
102
}
  0
BLOCK_RECORD
  5
6A
100
AcDbSymbolTableRecord
100
AcDbBlockTableRecord
  2
BLOCK15
340
0
102
{BLKREFS
331
1E9
102
}
  0
BLOCK_RECORD
  5
6B
100
AcDbSymbolTableRecord
100
AcDbBlockTableRecord
  2
BLOCK16
340
0
102
{BLKREFS
331
1EA
102
}
  0
BLOCK_RECORD
  5
6C
100
AcDbSymbolTableRecord
100
AcDbBlockTableRecord
  2
BLOCK17
340
0
102
{BLKREFS
331
1EB
102
}
  0
BLOCK_RECORD
  5
6D
100
AcDbSymbolTableRecord
100
AcDbBlockTableRecord
  2
BLOCK18
340
0
102
{BLKREFS
331
1EC
102
}
  0
BLOCK_RECORD
  5
6E
100
AcDbSymbolTableRecord
100
AcDbBlockTableRecord
  2
BLOCK19
340
0
102
{BLKREFS
331
1ED
102
}
  0
BLOCK_RECORD
  5
6F
100
AcDbSymbolTableRecord
100
AcDbBlockTableRecord
  2
BLOCK20
340
0
102
{BLKREFS
331
1EE
102
}
  0
BLOCK_RECORD
  5
70
100
AcDbSymbolTableRecord
100
AcDbBlockTableRecord
  2
BLOCK21
340
0
102
{BLKREFS
331
1EF
102
}
  0
BLOCK_RECORD
  5
71
100
AcDbSymbolTableRecord
100
AcDbBlockTableRecord
  2
BLOCK22
340
0
102
{BLKREFS
331
1F0
102
}
  0
BLOCK_RECORD
  5
72
100
AcDbSymbolTableRecord
100
AcDbBlockTableRecord
  2
BLOCK23
340
0
102
{BLKREFS
331
1F1
102
}
  0
BLOCK_RECORD
  5
73
100
AcDbSymbolTableRecord
100
AcDbBlockTableRecord
  2
BLOCK24
340
0
102
{BLKREFS
331
1F2
102
}
  0
BLOCK_RECORD
  5
74
100
AcDbSymbolTableRecord
100
AcDbBlockTableRecord
  2
BLOCK25
340
0
102
{BLKREFS
331
1F3
102
}
  0
BLOCK_RECORD
  5
75
100
AcDbSymbolTableRecord
100
AcDbBlockTableRecord
  2
BLOCK26
340
0
102
{BLKREFS
331
1F4
102
}
  0
BLOCK_RECORD
  5
76
100
AcDbSymbolTableRecord
100
AcDbBlockTableRecord
  2
BLOCK27
340
0
102
{BLKREFS
331
1F5
102
}
  0
BLOCK_RECORD
  5
77
100
AcDbSymbolTableRecord
100
AcDbBlockTableRecord
  2
BLOCK28
340
0
102
{BLKREFS
331
1F6
102
}
  0
BLOCK_RECORD
  5
78
100
AcDbSymbolTableRecord
100
AcDbBlockTableRecord
  2
BLOCK29
340
0
102
{BLKREFS
331
1F7
102
}
  0
BLOCK_RECORD
  5
55
100
AcDbSymbolTableRecord
100
AcDbBlockTableRecord
  2
*D29
340
0
  0
BLOCK_RECORD
  5
57
100
AcDbSymbolTableRecord
100
AcDbBlockTableRecord
  2
*D30
340
0
  0
BLOCK_RECORD
  5
59
100
AcDbSymbolTableRecord
100
AcDbBlockTableRecord
  2
*D31
340
0
  0
BLOCK_RECORD
  5
79
100
AcDbSymbolTableRecord
100
AcDbBlockTableRecord
  2
BLOCK30
340
0
102
{BLKREFS
331
1F8
102
}
  0
ENDTAB
  0
ENDSEC
  0
SECTION
  2
BLOCKS
  0
BLOCK
  5
D
100
AcDbEntity
  8
0
390
0
100
AcDbBlockBegin
  2
*MODEL_SPACE
 70
     0
 10
0.0
 20
0.0
 30
0.0
  3
*MODEL_SPACE
  1

  0
ENDBLK
  5
E
100
AcDbEntity
  8
0
390
0
100
AcDbBlockEnd
  0
BLOCK
  5
F
100
AcDbEntity
 67
     1
  8
0
390
0
100
AcDbBlockBegin
  2
*PAPER_SPACE
 70
     0
 10
0.0
 20
0.0
 30
0.0
  3
*PAPER_SPACE
  1

  0
ENDBLK
  5
10
100
AcDbEntity
 67
     1
  8
0
390
0
100
AcDbBlockEnd
  0
BLOCK
  5
7A
100
AcDbEntity
  8
0
370
     0
390
0
100
AcDbBlockBegin
  2
BLOCK1
 70
     0
 10
0.0
 20
0.0
 30
0.0
  3
BLOCK1
  1

  0
TEXT
  5
7B
100
AcDbEntity
  8
0
370
    13
390
0
 62
     7
100
AcDbText
 10
41.948341
 20
287.874939
 30
0.0
 40
2.0
  1
1
 41
0.75
 72
     5
 11
43.058216
 21
287.874939
 31
0.0
100
AcDbText
  0
ENDBLK
  5
7C
100
AcDbEntity
  8
0
390
0
100
AcDbBlockEnd
  0
BLOCK
  5
7D
100
AcDbEntity
  8
0
370
     0
390
0
100
AcDbBlockBegin
  2
BLOCK2
 70
     0
 10
0.0
 20
0.0
 30
0.0
  3
BLOCK2
  1

  0
TEXT
  5
7E
100
AcDbEntity
  8
0
370
    13
390
0
 62
     7
100
AcDbText
 10
86.948349
 20
287.874939
 30
0.0
 40
2.0
  1
2
 41
0.75
 72
     5
 11
88.058228
 21
287.874939
 31
0.0
100
AcDbText
  0
ENDBLK
  5
7F
100
AcDbEntity
  8
0
390
0
100
AcDbBlockEnd
  0
BLOCK
  5
80
100
AcDbEntity
  8
0
370
     0
390
0
100
AcDbBlockBegin
  2
BLOCK3
 70
     0
 10
0.0
 20
0.0
 30
0.0
  3
BLOCK3
  1

  0
TEXT
  5
81
100
AcDbEntity
  8
0
370
    13
390
0
 62
     7
100
AcDbText
 10
131.948349
 20
287.874939
 30
0.0
 40
2.0
  1
3
 41
0.75
 72
     5
 11
133.058228
 21
287.874939
 31
0.0
100
AcDbText
  0
ENDBLK
  5
82
100
AcDbEntity
  8
0
390
0
100
AcDbBlockEnd
  0
BLOCK
  5
83
100
AcDbEntity
  8
0
370
     0
390
0
100
AcDbBlockBegin
  2
BLOCK4
 70
     0
 10
0.0
 20
0.0
 30
0.0
  3
BLOCK4
  1

  0
TEXT
  5
84
100
AcDbEntity
  8
0
370
    13
390
0
 62
     7
100
AcDbText
 10
176.948349
 20
287.874939
 30
0.0
 40
2.0
  1
4
 41
0.75
 72
     5
 11
178.058228
 21
287.874939
 31
0.0
100
AcDbText
  0
ENDBLK
  5
85
100
AcDbEntity
  8
0
390
0
100
AcDbBlockEnd
  0
BLOCK
  5
86
100
AcDbEntity
  8
0
370
     0
390
0
100
AcDbBlockBegin
  2
BLOCK5
 70
     0
 10
0.0
 20
0.0
 30
0.0
  3
BLOCK5
  1

  0
TEXT
  5
87
100
AcDbEntity
  8
0
370
    13
390
0
 62
     7
100
AcDbText
 10
203.092789
 20
263.433167
 30
0.0
 40
2.0
  1
A
 50
90.000003
 41
0.75
 72
     5
 11
203.092789
 21
264.718292
 31
0.0
100
AcDbText
  0
ENDBLK
  5
88
100
AcDbEntity
  8
0
390
0
100
AcDbBlockEnd
  0
BLOCK
  5
89
100
AcDbEntity
  8
0
370
     0
390
0
100
AcDbBlockBegin
  2
BLOCK6
 70
     0
 10
0.0
 20
0.0
 30
0.0
  3
BLOCK6
  1

  0
TEXT
  5
8A
100
AcDbEntity
  8
0
370
    13
390
0
 62
     7
100
AcDbText
 10
203.092789
 20
217.241501
 30
0.0
 40
2.0
  1
B
 50
90.000003
 41
0.75
 72
     5
 11
203.092789
 21
218.576691
 31
0.0
100
AcDbText
  0
ENDBLK
  5
8B
100
AcDbEntity
  8
0
390
0
100
AcDbBlockEnd
  0
BLOCK
  5
8C
100
AcDbEntity
  8
0
370
     0
390
0
100
AcDbBlockBegin
  2
BLOCK7
 70
     0
 10
0.0
 20
0.0
 30
0.0
  3
BLOCK7
  1

  0
TEXT
  5
8D
100
AcDbEntity
  8
0
370
    13
390
0
 62
     7
100
AcDbText
 10
203.092789
 20
171.016418
 30
0.0
 40
2.0
  1
C
 50
90.000003
 41
0.75
 72
     5
 11
203.092789
 21
172.46843
 31
0.0
100
AcDbText
  0
ENDBLK
  5
8E
100
AcDbEntity
  8
0
390
0
100
AcDbBlockEnd
  0
BLOCK
  5
8F
100
AcDbEntity
  8
0
370
     0
390
0
100
AcDbBlockBegin
  2
BLOCK8
 70
     0
 10
0.0
 20
0.0
 30
0.0
  3
BLOCK8
  1

  0
TEXT
  5
90
100
AcDbEntity
  8
0
370
    13
390
0
 62
     7
100
AcDbText
 10
203.092789
 20
124.848709
 30
0.0
 40
2.0
  1
D
 50
90.000003
 41
0.75
 72
     5
 11
203.092789
 21
126.302811
 31
0.0
100
AcDbText
  0
ENDBLK
  5
91
100
AcDbEntity
  8
0
390
0
100
AcDbBlockEnd
  0
BLOCK
  5
92
100
AcDbEntity
  8
0
370
     0
390
0
100
AcDbBlockBegin
  2
BLOCK9
 70
     0
 10
0.0
 20
0.0
 30
0.0
  3
BLOCK9
  1

  0
TEXT
  5
93
100
AcDbEntity
  8
0
370
    13
390
0
 62
     7
100
AcDbText
 10
203.092789
 20
78.778008
 30
0.0
 40
2.0
  1
E
 50
90.000003
 41
0.75
 72
     5
 11
203.092789
 21
80.040176
 31
0.0
100
AcDbText
  0
ENDBLK
  5
94
100
AcDbEntity
  8
0
390
0
100
AcDbBlockEnd
  0
BLOCK
  5
95
100
AcDbEntity
  8
0
370
     0
390
0
100
AcDbBlockBegin
  2
BLOCK10
 70
     0
 10
0.0
 20
0.0
 30
0.0
  3
BLOCK10
  1

  0
TEXT
  5
96
100
AcDbEntity
  8
0
370
    13
390
0
 62
     7
100
AcDbText
 10
203.092789
 20
32.649933
 30
0.0
 40
2.0
  1
F
 50
90.000003
 41
0.75
 72
     5
 11
203.092789
 21
33.834911
 31
0.0
100
AcDbText
  0
ENDBLK
  5
97
100
AcDbEntity
  8
0
390
0
100
AcDbBlockEnd
  0
BLOCK
  5
98
100
AcDbEntity
  8
0
370
     0
390
0
100
AcDbBlockBegin
  2
BLOCK11
 70
     0
 10
0.0
 20
0.0
 30
0.0
  3
BLOCK11
  1

  0
TEXT
  5
99
100
AcDbEntity
  8
0
370
    13
390
0
 62
     7
100
AcDbText
 10
18.923407
 20
32.618019
 30
0.0
 40
2.0
  1
F
 50
90.000003
 41
0.75
 72
     5
 11
18.923407
 21
33.802998
 31
0.0
100
AcDbText
  0
ENDBLK
  5
9A
100
AcDbEntity
  8
0
390
0
100
AcDbBlockEnd
  0
BLOCK
  5
9B
100
AcDbEntity
  8
0
370
     0
390
0
100
AcDbBlockBegin
  2
BLOCK12
 70
     0
 10
0.0
 20
0.0
 30
0.0
  3
BLOCK12
  1

  0
TEXT
  5
9C
100
AcDbEntity
  8
0
370
    13
390
0
 62
     7
100
AcDbText
 10
19.092787
 20
78.778
 30
0.0
 40
2.0
  1
E
 50
90.000003
 41
0.75
 72
     5
 11
19.092787
 21
80.040169
 31
0.0
100
AcDbText
  0
ENDBLK
  5
9D
100
AcDbEntity
  8
0
390
0
100
AcDbBlockEnd
  0
BLOCK
  5
9E
100
AcDbEntity
  8
0
370
     0
390
0
100
AcDbBlockBegin
  2
BLOCK13
 70
     0
 10
0.0
 20
0.0
 30
0.0
  3
BLOCK13
  1

  0
TEXT
  5
9F
100
AcDbEntity
  8
0
370
    13
390
0
 62
     7
100
AcDbText
 10
19.092787
 20
124.848709
 30
0.0
 40
2.0
  1
D
 50
90.000003
 41
0.75
 72
     5
 11
19.092787
 21
126.302811
 31
0.0
100
AcDbText
  0
ENDBLK
  5
A0
100
AcDbEntity
  8
0
390
0
100
AcDbBlockEnd
  0
BLOCK
  5
A1
100
AcDbEntity
  8
0
370
     0
390
0
100
AcDbBlockBegin
  2
BLOCK14
 70
     0
 10
0.0
 20
0.0
 30
0.0
  3
BLOCK14
  1

  0
TEXT
  5
A2
100
AcDbEntity
  8
0
370
    13
390
0
 62
     7
100
AcDbText
 10
19.092787
 20
171.016418
 30
0.0
 40
2.0
  1
C
 50
90.000003
 41
0.75
 72
     5
 11
19.092787
 21
172.46843
 31
0.0
100
AcDbText
  0
ENDBLK
  5
A3
100
AcDbEntity
  8
0
390
0
100
AcDbBlockEnd
  0
BLOCK
  5
A4
100
AcDbEntity
  8
0
370
     0
390
0
100
AcDbBlockBegin
  2
BLOCK15
 70
     0
 10
0.0
 20
0.0
 30
0.0
  3
BLOCK15
  1

  0
TEXT
  5
A5
100
AcDbEntity
  8
0
370
    13
390
0
 62
     7
100
AcDbText
 10
19.092787
 20
217.241486
 30
0.0
 40
2.0
  1
B
 50
90.000003
 41
0.75
 72
     5
 11
19.092787
 21
218.576675
 31
0.0
100
AcDbText
  0
ENDBLK
  5
A6
100
AcDbEntity
  8
0
390
0
100
AcDbBlockEnd
  0
BLOCK
  5
A7
100
AcDbEntity
  8
0
370
     0
390
0
100
AcDbBlockBegin
  2
BLOCK16
 70
     0
 10
0.0
 20
0.0
 30
0.0
  3
BLOCK16
  1

  0
TEXT
  5
A8
100
AcDbEntity
  8
0
370
    13
390
0
 62
     7
100
AcDbText
 10
19.092789
 20
263.433197
 30
0.0
 40
2.0
  1
A
 50
90.000003
 41
0.75
 72
     5
 11
19.092789
 21
264.718323
 31
0.0
100
AcDbText
  0
ENDBLK
  5
A9
100
AcDbEntity
  8
0
390
0
100
AcDbBlockEnd
  0
BLOCK
  5
AA
100
AcDbEntity
  8
0
370
     0
390
0
100
AcDbBlockBegin
  2
BLOCK17
 70
     0
 10
0.0
 20
0.0
 30
0.0
  3
BLOCK17
  1

  0
TEXT
  5
AB
100
AcDbEntity
  8
0
370
    13
390
0
 62
     7
100
AcDbText
 10
41.948341
 20
6.874945
 30
0.0
 40
2.0
  1
1
 41
0.75
 72
     5
 11
43.058216
 21
6.874945
 31
0.0
100
AcDbText
  0
ENDBLK
  5
AC
100
AcDbEntity
  8
0
390
0
100
AcDbBlockEnd
  0
BLOCK
  5
AD
100
AcDbEntity
  8
0
370
     0
390
0
100
AcDbBlockBegin
  2
BLOCK18
 70
     0
 10
0.0
 20
0.0
 30
0.0
  3
BLOCK18
  1

  0
TEXT
  5
AE
100
AcDbEntity
  8
0
370
    13
390
0
 62
     7
100
AcDbText
 10
86.948349
 20
6.874945
 30
0.0
 40
2.0
  1
2
 41
0.75
 72
     5
 11
88.058228
 21
6.874945
 31
0.0
100
AcDbText
  0
ENDBLK
  5
AF
100
AcDbEntity
  8
0
390
0
100
AcDbBlockEnd
  0
BLOCK
  5
B0
100
AcDbEntity
  8
0
370
     0
390
0
100
AcDbBlockBegin
  2
BLOCK19
 70
     0
 10
0.0
 20
0.0
 30
0.0
  3
BLOCK19
  1

  0
TEXT
  5
B1
100
AcDbEntity
  8
0
370
    13
390
0
 62
     7
100
AcDbText
 10
131.948349
 20
6.874945
 30
0.0
 40
2.0
  1
3
 41
0.75
 72
     5
 11
133.058228
 21
6.874945
 31
0.0
100
AcDbText
  0
ENDBLK
  5
B2
100
AcDbEntity
  8
0
390
0
100
AcDbBlockEnd
  0
BLOCK
  5
B3
100
AcDbEntity
  8
0
370
     0
390
0
100
AcDbBlockBegin
  2
BLOCK20
 70
     0
 10
0.0
 20
0.0
 30
0.0
  3
BLOCK20
  1

  0
TEXT
  5
B4
100
AcDbEntity
  8
0
370
    13
390
0
 62
     7
100
AcDbText
 10
176.948349
 20
6.874945
 30
0.0
 40
2.0
  1
4
 41
0.75
 72
     5
 11
178.058228
 21
6.874945
 31
0.0
100
AcDbText
  0
ENDBLK
  5
B5
100
AcDbEntity
  8
0
390
0
100
AcDbBlockEnd
  0
BLOCK
  5
B6
100
AcDbEntity
  8
0
370
     0
390
0
100
AcDbBlockBegin
  2
BLOCK21
 70
     0
 10
0.0
 20
0.0
 30
0.0
  3
BLOCK21
  1

  0
TEXT
  5
B7
100
AcDbEntity
  8
0
370
    13
390
0
 62
     7
100
AcDbText
 10
200.262695
 20
6.931882
 30
0.0
 40
2.2
  1
A4
 41
0.8
 72
     5
 11
203.374161
 21
6.931882
 31
0.0
100
AcDbText
  0
ENDBLK
  5
B8
100
AcDbEntity
  8
0
390
0
100
AcDbBlockEnd
  0
BLOCK
  5
B9
100
AcDbEntity
  8
0
370
     0
390
0
100
AcDbBlockBegin
  2
BLOCK22
 70
     0
 10
0.0
 20
0.0
 30
0.0
  3
BLOCK22
  1

  0
TEXT
  5
BA
100
AcDbEntity
  8
0
370
    13
390
0
 62
     7
100
AcDbText
 10
161.453674
 20
20.734997
 30
0.0
 40
7.0
  1
525041
 41
0.7
 72
     5
 11
186.956268
 21
20.734997
 31
0.0
100
AcDbText
  0
ENDBLK
  5
BB
100
AcDbEntity
  8
0
390
0
100
AcDbBlockEnd
  0
BLOCK
  5
BC
100
AcDbEntity
  8
0
370
     0
390
0
100
AcDbBlockBegin
  2
BLOCK23
 70
     0
 10
0.0
 20
0.0
 30
0.0
  3
BLOCK23
  1

  0
TEXT
  5
BD
100
AcDbEntity
  8
0
370
    13
390
0
 62
     7
100
AcDbText
 10
82.495338
 20
21.74147
 30
0.0
 40
3.5
  1
Ammortizzatore colpo d'ariete
 41
0.6
 72
     5
 11
135.322128
 21
21.74147
 31
0.0
100
AcDbText
  0
ENDBLK
  5
BE
100
AcDbEntity
  8
0
390
0
100
AcDbBlockEnd
  0
BLOCK
  5
BF
100
AcDbEntity
  8
0
370
     0
390
0
100
AcDbBlockBegin
  2
BLOCK24
 70
     0
 10
0.0
 20
0.0
 30
0.0
  3
BLOCK24
  1

  0
TEXT
  5
C0
100
AcDbEntity
  8
0
370
    13
390
0
 62
     7
100
AcDbText
 10
71.442711
 20
29.673382
 30
0.0
 40
1.2
  1
DESCRIPTION
 41
0.75
 72
     5
 11
82.356201
 21
29.673382
 31
0.0
100
AcDbText
  0
ENDBLK
  5
C1
100
AcDbEntity
  8
0
390
0
100
AcDbBlockEnd
  0
BLOCK
  5
C2
100
AcDbEntity
  8
0
370
     0
390
0
100
AcDbBlockBegin
  2
BLOCK25
 70
     0
 10
0.0
 20
0.0
 30
0.0
  3
BLOCK25
  1

  0
TEXT
  5
C3
100
AcDbEntity
  8
0
370
    13
390
0
 62
     7
100
AcDbText
 10
148.790222
 20
29.167343
 30
0.0
 40
1.2
  1
CODE
 41
0.75
 72
     5
 11
153.138763
 21
29.167343
 31
0.0
100
AcDbText
  0
ENDBLK
  5
C4
100
AcDbEntity
  8
0
390
0
100
AcDbBlockEnd
  0
BLOCK
  5
C5
100
AcDbEntity
  8
0
370
     0
390
0
100
AcDbBlockBegin
  2
BLOCK26
 70
     0
 10
0.0
 20
0.0
 30
0.0
  3
BLOCK26
  1

  0
TEXT
  5
C6
100
AcDbEntity
  8
0
370
    13
390
0
 62
     7
100
AcDbText
 10
71.50589
 20
14.63884
 30
0.0
 40
1.2
  1
Attenzione: documento gestito da sistema informatico: se distribuito esternamente, l'aggiornamento e la validit\U+00E0 dello stesso devono essere verificati ad ogni utilizzo. Sono vietate le modifiche manuali.
 50
0.000005
 41
0.731
 72
     5
 11
214.008392
 21
14.638852
 31
0.0
100
AcDbText
  0
ENDBLK
  5
C7
100
AcDbEntity
  8
0
390
0
100
AcDbBlockEnd
  0
BLOCK
  5
C8
100
AcDbEntity
  8
0
370
     0
390
0
100
AcDbBlockBegin
  2
BLOCK27
 70
     0
 10
0.0
 20
0.0
 30
0.0
  3
BLOCK27
  1

  0
TEXT
  5
C9
100
AcDbEntity
  8
0
370
    13
390
0
 62
     7
100
AcDbText
 10
71.702682
 20
11.06699
 30
0.0
 40
1.2
  1
Attention: document managed by software system: in case of external distribution, its update and validity must be checked at any need. Hand modifications are forbidden.
 50
0.000001
 41
0.731
 72
     5
 11
187.082474
 21
11.066993
 31
0.0
100
AcDbText
  0
ENDBLK
  5
CA
100
AcDbEntity
  8
0
390
0
100
AcDbBlockEnd
  0
BLOCK
  5
CB
100
AcDbEntity
  8
0
370
     0
390
0
100
AcDbBlockBegin
  2
BLOCK28
 70
     0
 10
0.0
 20
0.0
 30
0.0
  3
BLOCK28
  1

  0
TEXT
  5
CC
100
AcDbEntity
  8
0
370
    13
390
0
 62
     7
100
AcDbText
 10
71.463943
 20
16.193491
 30
0.0
 40
1.2
  1
Questo documento non \U+00E8 da ritenersi impegnativo. Ci riserviamo il diritto di modificare i nostri prodotti, di apportare miglioramenti tecnici e di svilupparli ulteriormente.
 41
0.7
 72
     5
 11
185.562119
 21
16.193491
 31
0.0
100
AcDbText
  0
ENDBLK
  5
CD
100
AcDbEntity
  8
0
390
0
100
AcDbBlockEnd
  0
BLOCK
  5
CE
100
AcDbEntity
  8
0
370
     0
390
0
100
AcDbBlockBegin
  2
BLOCK29
 70
     0
 10
0.0
 20
0.0
 30
0.0
  3
BLOCK29
  1

  0
TEXT
  5
CF
100
AcDbEntity
  8
0
370
    13
390
0
 62
     7
100
AcDbText
 10
71.590965
 20
12.673855
 30
0.0
 40
1.2
  1
This document can not be considered binding. We reserve the right to change our products, to produce technical improvements and to further develop them.
 41
0.731
 72
     5
 11
177.492218
 21
12.673855
 31
0.0
100
AcDbText
  0
ENDBLK
  5
D0
100
AcDbEntity
  8
0
390
0
100
AcDbBlockEnd
  0
BLOCK
  5
D1
100
AcDbEntity
  8
0
370
     0
390
0
100
AcDbBlockBegin
  2
*D29
 70
    65
 10
0.0
 20
0.0
 30
0.0
  3
*D29
  1

  0
SOLID
  5
D2
100
AcDbEntity
  8
0
370
    13
390
0
 62
     7
100
AcDbTrace
 10
99.412945
 20
117.64064
 30
0.0
 11
101.903432
 21
117.858528
 31
0.0
 12
99.412945
 22
117.64064
 32
0.0
 13
99.412945
 23
118.076416
 33
0.0
  0
SOLID
  5
D3
100
AcDbEntity
  8
0
370
    13
390
0
 62
     7
100
AcDbTrace
 10
125.293919
 20
118.076416
 30
0.0
 11
122.803432
 21
117.858528
 31
0.0
 12
125.293919
 22
118.076416
 32
0.0
 13
125.293919
 23
117.64064
 33
0.0
  0
TEXT
  5
D4
100
AcDbEntity
  8
0
370
    13
390
0
 62
     7
100
AcDbText
 10
127.179815
 20
118.858528
 30
0.0
 40
3.0
  1
G1/2" ISO 228/1
 41
0.6
 72
     5
 11
152.700569
 21
118.858528
 31
0.0
100
AcDbText
  0
LINE
  5
D5
100
AcDbEntity
  8
0
370
    13
390
0
 62
     7
 48
0.293862
100
AcDbLine
 10
101.903432
 20
128.613026
 30
0.0
 11
101.903432
 21
116.858528
 31
0.0
210
0.0
220
0.0
230
1.0
  0
LINE
  5
D6
100
AcDbEntity
  8
0
370
    13
390
0
 62
     7
 48
0.293862
100
AcDbLine
 10
122.803432
 20
128.613026
 30
0.0
 11
122.803432
 21
116.858528
 31
0.0
210
0.0
220
0.0
230
1.0
  0
LINE
  5
D7
100
AcDbEntity
  8
0
370
    13
390
0
 62
     7
 48
0.062738
100
AcDbLine
 10
96.903432
 20
117.858528
 30
0.0
 11
99.412945
 21
117.858528
 31
0.0
210
0.0
220
0.0
230
1.0
  0
LINE
  5
D8
100
AcDbEntity
  8
0
370
    13
390
0
 62
     7
100
AcDbLine
 10
101.903432
 20
117.858528
 30
0.0
 11
122.803432
 21
117.858528
 31
0.0
210
0.0
220
0.0
230
1.0
  0
LINE
  5
D9
100
AcDbEntity
  8
0
370
    13
390
0
 62
     7
100
AcDbLine
 10
125.293919
 20
117.858528
 30
0.0
 11
152.700569
 21
117.858528
 31
0.0
210
0.0
220
0.0
230
1.0
  0
POLYLINE
  5
DA
100
AcDbEntity
  8
0
370
    13
390
0
 62
     7
100
AcDb2dPolyline
 66
     1
 10
0.0
 20
0.0
 30
0.0
 70
     1
 71
     3
  0
VERTEX
  5
DB
100
AcDbEntity
  8
0
370
     0
390
0
100
AcDbVertex
100
AcDb2dVertex
 10
99.412945
 20
117.64064
 30
0.0
  0
VERTEX
  5
DC
100
AcDbEntity
  8
0
370
     0
390
0
100
AcDbVertex
100
AcDb2dVertex
 10
101.903432
 20
117.858528
 30
0.0
  0
VERTEX
  5
DD
100
AcDbEntity
  8
0
370
     0
390
0
100
AcDbVertex
100
AcDb2dVertex
 10
99.412945
 20
118.076416
 30
0.0
  0
SEQEND
  5
DE
100
AcDbEntity
  8
0
370
     0
390
0
  0
POLYLINE
  5
DF
100
AcDbEntity
  8
0
370
    13
390
0
 62
     7
100
AcDb2dPolyline
 66
     1
 10
0.0
 20
0.0
 30
0.0
 70
     1
 71
     3
  0
VERTEX
  5
E0
100
AcDbEntity
  8
0
370
     0
390
0
100
AcDbVertex
100
AcDb2dVertex
 10
125.293919
 20
118.076416
 30
0.0
  0
VERTEX
  5
E1
100
AcDbEntity
  8
0
370
     0
390
0
100
AcDbVertex
100
AcDb2dVertex
 10
122.803432
 20
117.858528
 30
0.0
  0
VERTEX
  5
E2
100
AcDbEntity
  8
0
370
     0
390
0
100
AcDbVertex
100
AcDb2dVertex
 10
125.293919
 20
117.64064
 30
0.0
  0
SEQEND
  5
E3
100
AcDbEntity
  8
0
370
     0
390
0
  0
ENDBLK
  5
E4
100
AcDbEntity
  8
0
390
0
100
AcDbBlockEnd
  0
BLOCK
  5
E5
100
AcDbEntity
  8
0
370
     0
390
0
100
AcDbBlockBegin
  2
*D30
 70
    65
 10
0.0
 20
0.0
 30
0.0
  3
*D30
  1

  0
SOLID
  5
E6
100
AcDbEntity
  8
0
370
    13
390
0
 62
     7
100
AcDbTrace
 10
64.879196
 20
213.32254
 30
0.0
 11
64.661308
 21
215.813026
 31
0.0
 12
64.879196
 22
213.32254
 32
0.0
 13
64.44342
 23
213.32254
 33
0.0
  0
SOLID
  5
E7
100
AcDbEntity
  8
0
370
    13
390
0
 62
     7
100
AcDbTrace
 10
64.44342
 20
129.803513
 30
0.0
 11
64.661308
 21
127.313026
 31
0.0
 12
64.44342
 22
129.803513
 32
0.0
 13
64.879196
 23
129.803513
 33
0.0
  0
TEXT
  5
E8
100
AcDbEntity
  8
0
370
    13
390
0
 62
     7
100
AcDbText
 10
63.661308
 20
167.870899
 30
0.0
 40
3.0
  1
88,5
 50
90.000003
 41
0.6
 72
     5
 11
63.661308
 21
174.566433
 31
0.0
100
AcDbText
  0
LINE
  5
E9
100
AcDbEntity
  8
0
370
    13
390
0
 62
     7
100
AcDbLine
 10
103.203432
 20
127.313026
 30
0.0
 11
63.661308
 21
127.313026
 31
0.0
210
0.0
220
0.0
230
1.0
  0
LINE
  5
EA
100
AcDbEntity
  8
0
370
    13
390
0
 62
     7
100
AcDbLine
 10
91.853432
 20
215.813026
 30
0.0
 11
63.661308
 21
215.813026
 31
0.0
210
0.0
220
0.0
230
1.0
  0
LINE
  5
EB
100
AcDbEntity
  8
0
370
    13
390
0
 62
     7
100
AcDbLine
 10
64.661308
 20
129.803513
 30
0.0
 11
64.661308
 21
213.32254
 31
0.0
210
0.0
220
0.0
230
1.0
  0
POLYLINE
  5
EC
100
AcDbEntity
  8
0
370
    13
390
0
 62
     7
100
AcDb2dPolyline
 66
     1
 10
0.0
 20
0.0
 30
0.0
 70
     1
 71
     3
  0
VERTEX
  5
ED
100
AcDbEntity
  8
0
370
     0
390
0
100
AcDbVertex
100
AcDb2dVertex
 10
64.879196
 20
213.32254
 30
0.0
  0
VERTEX
  5
EE
100
AcDbEntity
  8
0
370
     0
390
0
100
AcDbVertex
100
AcDb2dVertex
 10
64.661308
 20
215.813026
 30
0.0
  0
VERTEX
  5
EF
100
AcDbEntity
  8
0
370
     0
390
0
100
AcDbVertex
100
AcDb2dVertex
 10
64.44342
 20
213.32254
 30
0.0
  0
SEQEND
  5
F0
100
AcDbEntity
  8
0
370
     0
390
0
  0
POLYLINE
  5
F1
100
AcDbEntity
  8
0
370
    13
390
0
 62
     7
100
AcDb2dPolyline
 66
     1
 10
0.0
 20
0.0
 30
0.0
 70
     1
 71
     3
  0
VERTEX
  5
F2
100
AcDbEntity
  8
0
370
     0
390
0
100
AcDbVertex
100
AcDb2dVertex
 10
64.44342
 20
129.803513
 30
0.0
  0
VERTEX
  5
F3
100
AcDbEntity
  8
0
370
     0
390
0
100
AcDbVertex
100
AcDb2dVertex
 10
64.661308
 20
127.313026
 30
0.0
  0
VERTEX
  5
F4
100
AcDbEntity
  8
0
370
     0
390
0
100
AcDbVertex
100
AcDb2dVertex
 10
64.879196
 20
129.803513
 30
0.0
  0
SEQEND
  5
F5
100
AcDbEntity
  8
0
370
     0
390
0
  0
ENDBLK
  5
F6
100
AcDbEntity
  8
0
390
0
100
AcDbBlockEnd
  0
BLOCK
  5
F7
100
AcDbEntity
  8
0
370
     0
390
0
100
AcDbBlockBegin
  2
*D31
 70
    65
 10
0.0
 20
0.0
 30
0.0
  3
*D31
  1

  0
SOLID
  5
F8
100
AcDbEntity
  8
0
370
    13
390
0
 62
     7
100
AcDbTrace
 10
90.873919
 20
226.449982
 30
0.0
 11
88.383432
 21
226.232094
 31
0.0
 12
90.873919
 22
226.449982
 32
0.0
 13
90.873919
 23
226.014206
 33
0.0
  0
SOLID
  5
F9
100
AcDbEntity
  8
0
370
    13
390
0
 62
     7
100
AcDbTrace
 10
133.832945
 20
226.014206
 30
0.0
 11
136.323431
 21
226.232094
 31
0.0
 12
133.832945
 22
226.014206
 32
0.0
 13
133.832945
 23
226.449982
 33
0.0
  0
TEXT
  5
FA
100
AcDbEntity
  8
0
370
    13
390
0
 62
     7
100
AcDbText
 10
121.727257
 20
227.232094
 30
0.0
 40
3.0
  1
48
 41
0.6
 72
     5
 11
125.000023
 21
227.232094
 31
0.0
100
AcDbText
  0
TEXT
  5
FB
100
AcDbEntity
  8
0
370
    13
390
0
 62
     7
100
AcDbText
 10
100.340652
 20
227.232094
 30
0.0
 40
3.0
  1
Ottagono ch.
 41
0.6
 72
     5
 11
120.727257
 21
227.232094
 31
0.0
100
AcDbText
  0
LINE
  5
FC
100
AcDbEntity
  8
0
370
    13
390
0
 62
     7
100
AcDbLine
 10
88.383432
 20
176.580976
 30
0.0
 11
88.383432
 21
227.232094
 31
0.0
210
0.0
220
0.0
230
1.0
  0
LINE
  5
FD
100
AcDbEntity
  8
0
370
    13
390
0
 62
     7
100
AcDbLine
 10
136.323431
 20
176.580976
 30
0.0
 11
136.323431
 21
227.232094
 31
0.0
210
0.0
220
0.0
230
1.0
  0
LINE
  5
FE
100
AcDbEntity
  8
0
370
    13
390
0
 62
     7
100
AcDbLine
 10
90.873919
 20
226.232094
 30
0.0
 11
133.832945
 21
226.232094
 31
0.0
210
0.0
220
0.0
230
1.0
  0
POLYLINE
  5
FF
100
AcDbEntity
  8
0
370
    13
390
0
 62
     7
100
AcDb2dPolyline
 66
     1
 10
0.0
 20
0.0
 30
0.0
 70
     1
 71
     3
  0
VERTEX
  5
100
100
AcDbEntity
  8
0
370
     0
390
0
100
AcDbVertex
100
AcDb2dVertex
 10
90.873919
 20
226.449982
 30
0.0
  0
VERTEX
  5
101
100
AcDbEntity
  8
0
370
     0
390
0
100
AcDbVertex
100
AcDb2dVertex
 10
88.383432
 20
226.232094
 30
0.0
  0
VERTEX
  5
102
100
AcDbEntity
  8
0
370
     0
390
0
100
AcDbVertex
100
AcDb2dVertex
 10
90.873919
 20
226.014206
 30
0.0
  0
SEQEND
  5
103
100
AcDbEntity
  8
0
370
     0
390
0
  0
POLYLINE
  5
104
100
AcDbEntity
  8
0
370
    13
390
0
 62
     7
100
AcDb2dPolyline
 66
     1
 10
0.0
 20
0.0
 30
0.0
 70
     1
 71
     3
  0
VERTEX
  5
105
100
AcDbEntity
  8
0
370
     0
390
0
100
AcDbVertex
100
AcDb2dVertex
 10
133.832945
 20
226.014206
 30
0.0
  0
VERTEX
  5
106
100
AcDbEntity
  8
0
370
     0
390
0
100
AcDbVertex
100
AcDb2dVertex
 10
136.323431
 20
226.232094
 30
0.0
  0
VERTEX
  5
107
100
AcDbEntity
  8
0
370
     0
390
0
100
AcDbVertex
100
AcDb2dVertex
 10
133.832945
 20
226.449982
 30
0.0
  0
SEQEND
  5
108
100
AcDbEntity
  8
0
370
     0
390
0
  0
ENDBLK
  5
109
100
AcDbEntity
  8
0
390
0
100
AcDbBlockEnd
  0
BLOCK
  5
10A
100
AcDbEntity
  8
0
370
     0
390
0
100
AcDbBlockBegin
  2
BLOCK30
 70
     0
 10
0.0
 20
0.0
 30
0.0
  3
BLOCK30
  1

  0
LINE
  5
10B
100
AcDbEntity
  8
0
370
    35
390
0
 62
     7
 48
0.305837
100
AcDbLine
 10
23.5
 20
-15.5
 30
0.0
 11
11.2665
 21
-15.5
 31
0.0
210
0.0
220
0.0
230
1.0
  0
LINE
  5
10C
100
AcDbEntity
  8
0
370
    13
390
0
 62
     7
 48
0.338373
100
AcDbLine
 10
26.0
 20
-13.0
 30
0.0
 11
12.465064
 21
-13.0
 31
0.0
210
0.0
220
0.0
230
1.0
  0
LINE
  5
10D
100
AcDbEntity
  8
0
370
    35
390
0
 62
     7
100
AcDbLine
 10
11.2665
 20
-15.5
 30
0.0
 11
-23.5
 21
-15.5
 31
0.0
210
0.0
220
0.0
230
1.0
  0
LINE
  5
10E
100
AcDbEntity
  8
0
370
    13
390
0
 62
     7
100
AcDbLine
 10
12.465064
 20
-13.0
 30
0.0
 11
-26.0
 21
-13.0
 31
0.0
210
0.0
220
0.0
230
1.0
  0
ELLIPSE
  5
10F
100
AcDbEntity
  8
0
370
    13
390
0
 62
     7
100
AcDbEllipse
 10
10.0
 20
-16.5
 30
0.0
 11
0.0000000000000001
 21
1.0
 31
0.0
210
0.0
220
0.0
230
1.0
 40
0.5
 41
0.0
 42
1.5707963267948966
  0
ARC
  5
110
100
AcDbEntity
  8
0
370
    35
390
0
 62
     7
100
AcDbCircle
 10
12.0
 20
-16.5
 30
0.0
 40
1.0
210
0.0
220
0.0
230
1.0
100
AcDbArc
 50
90.0
 51
180.0
  0
LINE
  5
111
100
AcDbEntity
  8
0
370
    13
390
0
 62
     7
 48
0.0375
100
AcDbLine
 10
11.0
 20
-16.5
 30
0.0
 11
9.5
 21
-16.5
 31
0.0
210
0.0
220
0.0
230
1.0
  0
ELLIPSE
  5
112
100
AcDbEntity
  8
0
370
    13
390
0
 62
     7
100
AcDbEllipse
 10
2.0
 20
-16.5
 30
0.0
 11
0.0000000000000001
 21
1.0
 31
0.0
210
0.0
220
0.0
230
1.0
 40
0.5
 41
0.0000000000000002
 42
1.5707963267948963
  0
LINE
  5
113
100
AcDbEntity
  8
0
370
    13
390
0
 62
     7
 48
0.2
100
AcDbLine
 10
1.5
 20
-16.5
 30
0.0
 11
9.5
 21
-16.5
 31
0.0
210
0.0
220
0.0
230
1.0
  0
ELLIPSE
  5
114
100
AcDbEntity
  8
0
370
    13
390
0
 62
     7
100
AcDbEllipse
 10
-2.0
 20
-16.5
 30
0.0
 11
0.0000000000000001
 21
1.0
 31
0.0
210
0.0
220
0.0
230
1.0
 40
0.5
 41
4.7123889803846897
 42
6.2831853071795862
  0
LINE
  5
115
100
AcDbEntity
  8
0
370
    13
390
0
 62
     7
 48
0.075
100
AcDbLine
 10
1.5
 20
-16.5
 30
0.0
 11
-1.5
 21
-16.5
 31
0.0
210
0.0
220
0.0
230
1.0
  0
ELLIPSE
  5
116
100
AcDbEntity
  8
0
370
    13
390
0
 62
     7
100
AcDbEllipse
 10
-10.0
 20
-16.5
 30
0.0
 11
0.0000000000000001
 21
1.0
 31
0.0
210
0.0
220
0.0
230
1.0
 40
0.5
 41
4.7123889803846897
 42
6.283185307179588
  0
LINE
  5
117
100
AcDbEntity
  8
0
370
    13
390
0
 62
     7
 48
0.2
100
AcDbLine
 10
-9.5
 20
-16.5
 30
0.0
 11
-1.5
 21
-16.5
 31
0.0
210
0.0
220
0.0
230
1.0
  0
ARC
  5
118
100
AcDbEntity
  8
0
370
    35
390
0
 62
     7
100
AcDbCircle
 10
-12.0
 20
-16.5
 30
0.0
 40
1.0
210
0.0
220
0.0
230
1.0
100
AcDbArc
 50
0.0
 51
90.0
  0
LINE
  5
119
100
AcDbEntity
  8
0
370
    13
390
0
 62
     7
 48
0.0375
100
AcDbLine
 10
-9.5
 20
-16.5
 30
0.0
 11
-11.0
 21
-16.5
 31
0.0
210
0.0
220
0.0
230
1.0
  0
LINE
  5
11A
100
AcDbEntity
  8
0
370
    35
390
0
 62
     7
 48
0.15
100
AcDbLine
 10
11.0
 20
-16.5
 30
0.0
 11
11.0
 21
-22.5
 31
0.0
210
0.0
220
0.0
230
1.0
  0
LINE
  5
11B
100
AcDbEntity
  8
0
370
    13
390
0
 62
     7
 48
0.15
100
AcDbLine
 10
9.5
 20
-16.5
 30
0.0
 11
9.5
 21
-22.5
 31
0.0
210
0.0
220
0.0
230
1.0
  0
LINE
  5
11C
100
AcDbEntity
  8
0
370
    35
390
0
 62
     7
 48
0.0375
100
AcDbLine
 10
9.5
 20
-22.5
 30
0.0
 11
11.0
 21
-22.5
 31
0.0
210
0.0
220
0.0
230
1.0
  0
LINE
  5
11D
100
AcDbEntity
  8
0
370
    13
390
0
 62
     7
 48
0.15
100
AcDbLine
 10
1.5
 20
-16.5
 30
0.0
 11
1.5
 21
-22.5
 31
0.0
210
0.0
220
0.0
230
1.0
  0
LINE
  5
11E
100
AcDbEntity
  8
0
370
    35
390
0
 62
     7
 48
0.2
100
AcDbLine
 10
9.500001
 20
-22.5
 30
0.0
 11
1.499998
 21
-22.5
 31
0.0
210
0.0
220
0.0
230
1.0
  0
LINE
  5
11F
100
AcDbEntity
  8
0
370
    13
390
0
 62
     7
 48
0.15
100
AcDbLine
 10
-1.5
 20
-16.5
 30
0.0
 11
-1.5
 21
-22.5
 31
0.0
210
0.0
220
0.0
230
1.0
  0
LINE
  5
120
100
AcDbEntity
  8
0
370
    35
390
0
 62
     7
 48
0.075
100
AcDbLine
 10
-1.5
 20
-22.5
 30
0.0
 11
1.5
 21
-22.5
 31
0.0
210
0.0
220
0.0
230
1.0
  0
LINE
  5
121
100
AcDbEntity
  8
0
370
    13
390
0
 62
     7
 48
0.15
100
AcDbLine
 10
-9.5
 20
-16.5
 30
0.0
 11
-9.5
 21
-22.5
 31
0.0
210
0.0
220
0.0
230
1.0
  0
LINE
  5
122
100
AcDbEntity
  8
0
370
    35
390
0
 62
     7
 48
0.2
100
AcDbLine
 10
-1.499999
 20
-22.5
 30
0.0
 11
-9.5
 21
-22.5
 31
0.0
210
0.0
220
0.0
230
1.0
  0
LINE
  5
123
100
AcDbEntity
  8
0
370
    35
390
0
 62
     7
 48
0.15
100
AcDbLine
 10
-11.0
 20
-16.5
 30
0.0
 11
-11.0
 21
-22.5
 31
0.0
210
0.0
220
0.0
230
1.0
  0
LINE
  5
124
100
AcDbEntity
  8
0
370
    35
390
0
 62
     7
 48
0.0375
100
AcDbLine
 10
-11.0
 20
-22.5
 30
0.0
 11
-9.5
 21
-22.5
 31
0.0
210
0.0
220
0.0
230
1.0
  0
LINE
  5
125
100
AcDbEntity
  8
0
370
    35
390
0
 62
     7
 48
0.135349
100
AcDbLine
 10
-10.4
 20
-23.778312
 30
0.0
 11
-4.986026
 21
-23.778312
 31
0.0
210
0.0
220
0.0
230
1.0
  0
LINE
  5
126
100
AcDbEntity
  8
0
370
    35
390
0
 62
     7
 48
0.384651
100
AcDbLine
 10
-4.986026
 20
-23.778312
 30
0.0
 11
10.4
 21
-23.778312
 31
0.0
210
0.0
220
0.0
230
1.0
  0
LINE
  5
127
100
AcDbEntity
  8
0
370
    35
390
0
 62
     7
 48
0.119081
100
AcDbLine
 10
-9.15
 20
-24.5
 30
0.0
 11
-4.386744
 21
-24.5
 31
0.0
210
0.0
220
0.0
230
1.0
  0
LINE
  5
128
100
AcDbEntity
  8
0
370
    35
390
0
 62
     7
 48
0.338419
100
AcDbLine
 10
-4.386744
 20
-24.5
 30
0.0
 11
9.15
 21
-24.5
 31
0.0
210
0.0
220
0.0
230
1.0
  0
LINE
  5
129
100
AcDbEntity
  8
0
370
    35
390
0
 62
     7
 48
0.338419
100
AcDbLine
 10
-4.386744
 20
-28.2
 30
0.0
 11
9.15
 21
-28.2
 31
0.0
210
0.0
220
0.0
230
1.0
  0
LINE
  5
12A
100
AcDbEntity
  8
0
370
    35
390
0
 62
     7
 48
0.119081
100
AcDbLine
 10
-9.15
 20
-28.2
 30
0.0
 11
-4.386744
 21
-28.2
 31
0.0
210
0.0
220
0.0
230
1.0
  0
LINE
  5
12B
100
AcDbEntity
  8
0
370
    35
390
0
 62
     7
 48
0.3865
100
AcDbLine
 10
-5.009997
 20
-28.950555
 30
0.0
 11
10.45
 21
-28.950555
 31
0.0
210
0.0
220
0.0
230
1.0
  0
LINE
  5
12C
100
AcDbEntity
  8
0
370
    35
390
0
 62
     7
 48
0.136
100
AcDbLine
 10
-10.45
 20
-28.950555
 30
0.0
 11
-5.009997
 21
-28.950555
 31
0.0
210
0.0
220
0.0
230
1.0
  0
LINE
  5
12D
100
AcDbEntity
  8
0
370
    35
390
0
 62
     7
 48
0.3865
100
AcDbLine
 10
-5.009997
 20
-36.2
 30
0.0
 11
10.45
 21
-36.2
 31
0.0
210
0.0
220
0.0
230
1.0
  0
LINE
  5
12E
100
AcDbEntity
  8
0
370
    35
390
0
 62
     7
 48
0.136
100
AcDbLine
 10
-10.45
 20
-36.2
 30
0.0
 11
-5.009997
 21
-36.2
 31
0.0
210
0.0
220
0.0
230
1.0
  0
LINE
  5
12F
100
AcDbEntity
  8
0
370
    35
390
0
 62
     7
 48
0.338419
100
AcDbLine
 10
-4.386744
 20
-37.5
 30
0.0
 11
9.15
 21
-37.5
 31
0.0
210
0.0
220
0.0
230
1.0
  0
LINE
  5
130
100
AcDbEntity
  8
0
370
    35
390
0
 62
     7
 48
0.119081
100
AcDbLine
 10
-9.15
 20
-37.5
 30
0.0
 11
-4.386744
 21
-37.5
 31
0.0
210
0.0
220
0.0
230
1.0
  0
LINE
  5
131
100
AcDbEntity
  8
0
370
    35
390
0
 62
     7
 48
0.078041
100
AcDbLine
 10
-25.5
 20
0.5
 30
0.0
 11
-22.378355
 21
0.5
 31
0.0
210
0.0
220
0.0
230
1.0
  0
LINE
  5
132
100
AcDbEntity
  8
0
370
    35
390
0
 62
     7
 48
0.253825
100
AcDbLine
 10
-22.378355
 20
0.5
 30
0.0
 11
-12.225351
 21
0.5
 31
0.0
210
0.0
220
0.0
230
1.0
  0
LINE
  5
133
100
AcDbEntity
  8
0
370
    35
390
0
 62
     7
 48
0.338373
100
AcDbLine
 10
-26.0
 20
0.0
 30
0.0
 11
-12.465064
 21
0.0
 31
0.0
210
0.0
220
0.0
230
1.0
  0
LINE
  5
134
100
AcDbEntity
  8
0
370
    35
390
0
 62
     7
100
AcDbLine
 10
-12.225351
 20
0.5
 30
0.0
 11
25.5
 21
0.5
 31
0.0
210
0.0
220
0.0
230
1.0
  0
LINE
  5
135
100
AcDbEntity
  8
0
370
    35
390
0
 62
     7
 48
0.338373
100
AcDbLine
 10
12.465064
 20
0.0
 30
0.0
 11
26.0
 21
0.0
 31
0.0
210
0.0
220
0.0
230
1.0
  0
LINE
  5
136
100
AcDbEntity
  8
0
370
    35
390
0
 62
     7
100
AcDbLine
 10
-12.465064
 20
0.0
 30
0.0
 11
12.465064
 21
0.0
 31
0.0
210
0.0
220
0.0
230
1.0
  0
LINE
  5
137
100
AcDbEntity
  8
0
370
    35
390
0
 62
     7
 48
0.030757
100
AcDbLine
 10
-8.819705
 20
-28.1
 30
0.0
 11
-10.05
 21
-28.1
 31
0.0
210
0.0
220
0.0
230
1.0
  0
LINE
  5
138
100
AcDbEntity
  8
0
370
    35
390
0
 62
     7
 48
0.032288
100
AcDbLine
 10
-9.258496
 20
-27.6
 30
0.0
 11
-10.55
 21
-27.6
 31
0.0
210
0.0
220
0.0
230
1.0
  0
LINE
  5
139
100
AcDbEntity
  8
0
370
    35
390
0
 62
     7
 48
0.471743
100
AcDbLine
 10
10.05
 20
-28.1
 30
0.0
 11
-8.819705
 21
-28.1
 31
0.0
210
0.0
220
0.0
230
1.0
  0
LINE
  5
13A
100
AcDbEntity
  8
0
370
    35
390
0
 62
     7
 48
0.495212
100
AcDbLine
 10
10.55
 20
-27.6
 30
0.0
 11
-9.258496
 21
-27.6
 31
0.0
210
0.0
220
0.0
230
1.0
  0
LINE
  5
13B
100
AcDbEntity
  8
0
370
    35
390
0
 62
     7
 48
0.032288
100
AcDbLine
 10
-9.258496
 20
-25.1
 30
0.0
 11
-10.55
 21
-25.1
 31
0.0
210
0.0
220
0.0
230
1.0
  0
LINE
  5
13C
100
AcDbEntity
  8
0
370
    35
390
0
 62
     7
 48
0.495212
100
AcDbLine
 10
10.55
 20
-25.1
 30
0.0
 11
-9.258496
 21
-25.1
 31
0.0
210
0.0
220
0.0
230
1.0
  0
LINE
  5
13D
100
AcDbEntity
  8
0
370
    35
390
0
 62
     7
 48
0.030757
100
AcDbLine
 10
-8.819705
 20
-24.6
 30
0.0
 11
-10.05
 21
-24.6
 31
0.0
210
0.0
220
0.0
230
1.0
  0
LINE
  5
13E
100
AcDbEntity
  8
0
370
    35
390
0
 62
     7
 48
0.471743
100
AcDbLine
 10
10.05
 20
-24.6
 30
0.0
 11
-8.819705
 21
-24.6
 31
0.0
210
0.0
220
0.0
230
1.0
  0
LINE
  5
13F
100
AcDbEntity
  8
0
370
    13
390
0
 62
     7
100
AcDbLine
 10
23.0
 20
48.5
 30
0.0
 11
-20.184399
 21
48.5
 31
0.0
210
0.0
220
0.0
230
1.0
  0
LINE
  5
140
100
AcDbEntity
  8
0
370
    35
390
0
 62
     7
100
AcDbLine
 10
20.5
 20
51.0
 30
0.0
 11
-17.990443
 21
51.0
 31
0.0
210
0.0
220
0.0
230
1.0
  0
LINE
  5
141
100
AcDbEntity
  8
0
370
    13
390
0
 62
     7
 48
0.07039
100
AcDbLine
 10
-20.184399
 20
48.5
 30
0.0
 11
-23.0
 21
48.5
 31
0.0
210
0.0
220
0.0
230
1.0
  0
LINE
  5
142
100
AcDbEntity
  8
0
370
    35
390
0
 62
     7
 48
0.062739
100
AcDbLine
 10
-17.990443
 20
51.0
 30
0.0
 11
-20.5
 21
51.0
 31
0.0
210
0.0
220
0.0
230
1.0
  0
LINE
  5
143
100
AcDbEntity
  8
0
370
    35
390
0
 62
     7
 48
0.175891
100
AcDbLine
 10
20.841928
 20
2.5
 30
0.0
 11
13.806304
 21
2.5
 31
0.0
210
0.0
220
0.0
230
1.0
  0
SPLINE
  5
144
100
AcDbEntity
  8
0
370
    13
390
0
 62
     7
100
AcDbSpline
210
0.0
220
0.0
230
1.0
 70
     8
 71
     5
 72
    27
 73
    21
 74
     0
 42
0.0
 43
0.0
 40
0.0
 40
0.0
 40
0.0
 40
0.0
 40
0.0
 40
0.0
 40
0.2018879799447364
 40
0.2018879799447364
 40
0.2018879799447364
 40
0.4066699719760637
 40
0.4066699719760637
 40
0.4066699719760637
 40
1.0156088526940801
 40
1.0156088526940801
 40
1.0156088526940801
 40
1.6509631711582535
 40
1.6509631711582535
 40
1.6509631711582535
 40
2.9162000381433608
 40
2.9162000381433608
 40
2.9162000381433608
 40
6.3211242621636341
 40
6.3211242621636341
 40
6.3211242621636341
 40
6.3211242621636341
 40
6.3211242621636341
 40
6.3211242621636341
 10
10.939393680248685
 20
3.0000000000002682
 30
0.0
 10
10.939393599180338
 20
2.9835194805618026
 30
0.0
 10
10.94251934129109
 20
2.9670465941233926
 30
0.0
 10
10.948883496242479
 20
2.9509125968380281
 30
0.0
 10
10.966101729721192
 20
2.9207668344589175
 30
0.0
 10
10.99039210378001
 20
2.8942294821257923
 30
0.0
 10
11.003944842099093
 20
2.8816919000286156
 30
0.0
 10
11.061113960041085
 20
2.8352284168714261
 30
0.0
 10
11.129367769558288
 20
2.7995567177913818
 30
0.0
 10
11.180638042316557
 20
2.7767960658910038
 30
0.0
 10
11.291403847151399
 20
2.7346309003653659
 30
0.0
 10
11.405976861179697
 20
2.7013473007535169
 30
0.0
 10
11.464526525743043
 20
2.6861391055433419
 30
0.0
 10
11.64290192062745
 20
2.6443605771512741
 30
0.0
 10
11.823857977844337
 20
2.6132988483233839
 30
0.0
 10
11.94510415747804
 20
2.5956884908865119
 30
0.0
 10
12.393200329676237
 20
2.5405602460540133
 30
0.0
 10
12.842303440667349
 20
2.5150574795376244
 30
0.0
 10
13.158897669853243
 20
2.5044263184522433
 30
0.0
 10
13.483502188139818
 20
2.5000000000000009
 30
0.0
 10
13.806305433692792
 20
2.5000000000000009
 30
0.0
  0
LINE
  5
145
100
AcDbEntity
  8
0
370
    13
390
0
 62
     7
 48
0.301558
100
AcDbLine
 10
23.001733
 20
3.0
 30
0.0
 11
10.939394
 21
3.0
 31
0.0
210
0.0
220
0.0
230
1.0
  0
SPLINE
  5
146
100
AcDbEntity
  8
0
370
    13
390
0
 62
     7
100
AcDbSpline
210
0.0
220
0.0
230
1.0
 70
     8
 71
     5
 72
    24
 73
    18
 74
     0
 42
0.0
 43
0.0
 40
0.0
 40
0.0
 40
0.0
 40
0.0
 40
0.0
 40
0.0
 40
3.6429672008015039
 40
3.6429672008015039
 40
3.6429672008015039
 40
4.8424786395979176
 40
4.8424786395979176
 40
4.8424786395979176
 40
5.4404059891427865
 40
5.4404059891427865
 40
5.4404059891427865
 40
5.8820284009694399
 40
5.8820284009694399
 40
5.8820284009694399
 40
6.0333686452643667
 40
6.0333686452643667
 40
6.0333686452643667
 40
6.0333686452643667
 40
6.0333686452643667
 40
6.0333686452643667
 10
20.841927958937973
 20
2.5000000000000009
 30
0.0
 10
21.13484507664834
 20
2.5000000000000009
 30
0.0
 10
21.423662066114812
 20
2.5054782680776504
 30
0.0
 10
21.695974155426804
 20
2.5192358583583845
 30
0.0
 10
22.068349604538536
 20
2.5502498007118373
 30
0.0
 10
22.425981117826961
 20
2.6251669705974834
 30
0.0
 10
22.5121036897017
 20
2.6467745507523257
 30
0.0
 10
22.641460172694529
 20
2.6856664415370726
 30
0.0
 10
22.764599789314101
 20
2.7400515200317268
 30
0.0
 10
22.804682822793929
 20
2.7603068351023801
 30
0.0
 10
22.872392294170147
 20
2.7999873993565458
 30
0.0
 10
22.932507875817979
 20
2.8519048624792656
 30
0.0
 10
22.957032262506157
 20
2.8775275790528778
 30
0.0
 10
22.984389863057402
 20
2.917017493983769
 30
0.0
 10
22.998073076602196
 20
2.9631248169942239
 30
0.0
 10
23.000518942196109
 20
2.9753332173596658
 30
0.0
 10
23.001732854795762
 20
2.9876631439332133
 30
0.0
 10
23.001732553249397
 20
2.9999999999999987
 30
0.0
  0
LINE
  5
147
100
AcDbEntity
  8
0
370
    13
390
0
 62
     7
 48
0.003546
100
AcDbLine
 10
10.939394
 20
3.0
 30
0.0
 11
10.797557
 21
3.0
 31
0.0
210
0.0
220
0.0
230
1.0
  0
SPLINE
  5
148
100
AcDbEntity
  8
0
370
    13
390
0
 62
     7
100
AcDbSpline
210
0.0
220
0.0
230
1.0
 70
     8
 71
     5
 72
    27
 73
    21
 74
     0
 42
0.0
 43
0.0
 40
0.0
 40
0.0
 40
0.0
 40
0.0
 40
0.0
 40
0.0
 40
0.2035162850778625
 40
0.2035162850778625
 40
0.2035162850778625
 40
0.5227000563459789
 40
0.5227000563459789
 40
0.5227000563459789
 40
1.1098860496730087
 40
1.1098860496730087
 40
1.1098860496730087
 40
1.7917056504517728
 40
1.7917056504517728
 40
1.7917056504517728
 40
3.790557133385378
 40
3.790557133385378
 40
3.790557133385378
 40
6.6397737428388952
 40
6.6397737428388952
 40
6.6397737428388952
 40
6.6397737428388952
 40
6.6397737428388952
 40
6.6397737428388952
 10
10.797557085761216
 20
3.000000000000151
 30
0.0
 10
10.79755699459912
 20
2.9728684176042521
 30
0.0
 10
10.800049017494684
 20
2.9457436876847067
 30
0.0
 10
10.805103509424727
 20
2.9187741454820744
 30
0.0
 10
10.823520123047714
 20
2.8524167125897462
 30
0.0
 10
10.853912640942982
 20
2.792434799579258
 30
0.0
 10
10.875894938491449
 20
2.7581973463995864
 30
0.0
 10
10.943629097016847
 20
2.6690497772114092
 30
0.0
 10
11.024573347680681
 20
2.596933726868611
 30
0.0
 10
11.079540268978791
 20
2.5553190337117315
 30
0.0
 10
11.201995047481539
 20
2.4744427056979075
 30
0.0
 10
11.330027667113281
 20
2.4093629008835227
 30
0.0
 10
11.400289347290299
 20
2.3775337627273103
 30
0.0
 10
11.6775550815792
 20
2.2644780722648119
 30
0.0
 10
11.961778218485945
 20
2.1893623981408838
 30
0.0
 10
12.168505829033325
 20
2.1455432717389216
 30
0.0
 10
12.683484952731879
 20
2.0602753424244278
 30
0.0
 10
13.195240522987683
 20
2.0196869895670746
 30
0.0
 10
13.49353739228513
 20
2.0058791774650406
 30
0.0
 10
13.789346590278333
 20
2.0000001607142703
 30
0.0
 10
14.082431751963233
 20
2.0000003383380367
 30
0.0
  0
ELLIPSE
  5
149
100
AcDbEntity
  8
0
370
    13
390
0
 62
     7
100
AcDbEllipse
 10
13.806306
 20
2.0
 30
0.0
 11
0.0000000717625284
 21
-0.4999998509883881
 31
0.0
210
0.0
220
0.0
230
1.0
 40
0.552252
 41
1.5707962475332093
 42
3.1415926174734272
  0
LINE
  5
14A
100
AcDbEntity
  8
0
370
    13
390
0
 62
     7
 48
0.179408
100
AcDbLine
 10
21.258766
 20
2.0
 30
0.0
 11
14.08243
 21
2.0
 31
0.0
210
0.0
220
0.0
230
1.0
  0
ELLIPSE
  5
14B
100
AcDbEntity
  8
0
370
    13
390
0
 62
     7
100
AcDbEllipse
 10
20.841928
 20
2.0
 30
0.0
 11
0.0
 21
0.5
 31
0.0
210
0.0
220
0.0
230
1.0
 40
0.833677
 41
4.7123889803846906
 42
6.2831853071795933
  0
SPLINE
  5
14C
100
AcDbEntity
  8
0
370
    13
390
0
 62
     7
100
AcDbSpline
210
0.0
220
0.0
230
1.0
 70
     8
 71
     5
 72
    24
 73
    18
 74
     0
 42
0.0
 43
0.0
 40
0.0
 40
0.0
 40
0.0
 40
0.0
 40
0.0
 40
0.0
 40
2.9702333906621159
 40
2.9702333906621159
 40
2.9702333906621159
 40
4.1495440464043671
 40
4.1495440464043671
 40
4.1495440464043671
 40
5.3507851754908646
 40
5.3507851754908646
 40
5.3507851754908646
 40
5.7757540106266205
 40
5.7757540106266205
 40
5.7757540106266205
 40
6.0414644181676298
 40
6.0414644181676298
 40
6.0414644181676298
 40
6.0414644181676298
 40
6.0414644181676298
 40
6.0414644181676298
 10
21.258766518116712
 20
2.0000000000000036
 30
0.0
 10
21.478080509333061
 20
2.0000000000000036
 30
0.0
 10
21.692096145572588
 20
2.0075037383188308
 30
0.0
 10
21.898081246159098
 20
2.0256064079242861
 30
0.0
 10
22.181093802308581
 20
2.0702884002718069
 30
0.0
 10
22.449202752861474
 20
2.163429063102754
 30
0.0
 10
22.524275887751951
 20
2.194666895688016
 30
0.0
 10
22.672380709955355
 20
2.2687692188739659
 30
0.0
 10
22.812633820866797
 20
2.3741536697878951
 30
0.0
 10
22.87951290400467
 20
2.4368883891217452
 30
0.0
 10
22.968350668339639
 20
2.5404995406353215
 30
0.0
 10
23.039377055714972
 20
2.6889829707610735
 30
0.0
 10
23.056577669659223
 20
2.7318528175899872
 30
0.0
 10
23.080488567762508
 20
2.8079255854773244
 30
0.0
 10
23.095161407098878
 20
2.8943779223943213
 30
0.0
 10
23.099160229881686
 20
2.929239426839418
 30
0.0
 10
23.101142737866926
 20
2.9646102796177494
 30
0.0
 10
23.101142459184345
 20
3.0000000231164243
 30
0.0
  0
LINE
  5
14D
100
AcDbEntity
  8
0
370
    13
390
0
 62
     7
 48
0.002485
100
AcDbLine
 10
23.001733
 20
3.0
 30
0.0
 11
23.101142
 21
3.0
 31
0.0
210
0.0
220
0.0
230
1.0
  0
LINE
  5
14E
100
AcDbEntity
  8
0
370
    35
390
0
 62
     7
 48
0.0125
100
AcDbLine
 10
25.0
 20
2.5
 30
0.0
 11
24.5
 21
2.5
 31
0.0
210
0.0
220
0.0
230
1.0
  0
ARC
  5
14F
100
AcDbEntity
  8
0
370
    35
390
0
 62
     7
100
AcDbCircle
 10
24.5
 20
3.0
 30
0.0
 40
0.5
210
0.0
220
0.0
230
1.0
100
AcDbArc
 50
180.0
 51
270.0
  0
ELLIPSE
  5
150
100
AcDbEntity
  8
0
370
    13
390
0
 62
     7
100
AcDbEllipse
 10
24.5
 20
2.0
 30
0.0
 11
-0.0000000000000001
 21
-0.5
 31
0.0
210
0.0
220
0.0
230
1.0
 40
0.98
 41
1.5707963267948963
 42
3.1415926535897927
  0
LINE
  5
151
100
AcDbEntity
  8
0
370
    13
390
0
 62
     7
 48
0.01275
100
AcDbLine
 10
25.5
 20
2.0
 30
0.0
 11
24.99
 21
2.0
 31
0.0
210
0.0
220
0.0
230
1.0
  0
LINE
  5
152
100
AcDbEntity
  8
0
370
    13
390
0
 62
     7
 48
0.00075
100
AcDbLine
 10
23.97
 20
3.0
 30
0.0
 11
24.0
 21
3.0
 31
0.0
210
0.0
220
0.0
230
1.0
  0
SPLINE
  5
153
100
AcDbEntity
  8
0
370
    13
390
0
 62
     7
100
AcDbSpline
210
0.0
220
0.0
230
1.0
 70
     8
 71
     5
 72
    24
 73
    18
 74
     0
 42
0.0
 43
0.0
 40
0.0
 40
0.0
 40
0.0
 40
0.0
 40
0.0
 40
0.0
 40
2.8124179456151817
 40
2.8124179456151817
 40
2.8124179456151817
 40
4.5356620469113391
 40
4.5356620469113391
 40
4.5356620469113391
 40
5.1275513317543941
 40
5.1275513317543941
 40
5.1275513317543941
 40
5.7616120490835341
 40
5.7616120490835341
 40
5.7616120490835341
 40
5.8284515906674406
 40
5.8284515906674406
 40
5.8284515906674406
 40
5.8284515906674406
 40
5.8284515906674406
 40
5.8284515906674406
 10
24.990000798106237
 20
2.0000008852708966
 30
0.0
 10
24.910289351075853
 20
2.0000002149010561
 30
0.0
 10
24.822918027894868
 20
2.0076311652660075
 30
0.0
 10
24.728684462309939
 20
2.0259506062319277
 30
0.0
 10
24.563587635165547
 20
2.0776895358557836
 30
0.0
 10
24.382234950876054
 20
2.1906868305949372
 30
0.0
 10
24.31287353458751
 20
2.2442696743723829
 30
0.0
 10
24.21501282373714
 20
2.3354383939836851
 30
0.0
 10
24.120400119773784
 20
2.4746455866398476
 30
0.0
 10
24.096537386198452
 20
2.5140919114244067
 30
0.0
 10
24.048543267684614
 20
2.6051117828625054
 30
0.0
 10
24.007122931461531
 20
2.7210574839855326
 30
0.0
 10
23.987481196923373
 20
2.7908489465037341
 30
0.0
 10
23.973479148874201
 20
2.880190598312276
 30
0.0
 10
23.970303785745749
 20
2.973276293325231
 30
0.0
 10
23.97010123140489
 20
2.9821788130152425
 30
0.0
 10
23.969999991128688
 20
2.9910897714648459
 30
0.0
 10
23.969999975899999
 20
2.9999999999996478
 30
0.0
  0
LINE
  5
154
100
AcDbEntity
  8
0
370
    35
390
0
 62
     7
 48
0.0125
100
AcDbLine
 10
-24.5
 20
2.5
 30
0.0
 11
-25.0
 21
2.5
 31
0.0
210
0.0
220
0.0
230
1.0
  0
ARC
  5
155
100
AcDbEntity
  8
0
370
    35
390
0
 62
     7
100
AcDbCircle
 10
-24.5
 20
3.0
 30
0.0
 40
0.5
210
0.0
220
0.0
230
1.0
100
AcDbArc
 50
270.0
 51
360.0
  0
LINE
  5
156
100
AcDbEntity
  8
0
370
    13
390
0
 62
     7
 48
0.00075
100
AcDbLine
 10
-23.97
 20
3.0
 30
0.0
 11
-24.0
 21
3.0
 31
0.0
210
0.0
220
0.0
230
1.0
  0
ARC
  5
157
100
AcDbEntity
  8
0
370
    13
390
0
 62
     7
100
AcDbCircle
 10
-24.494166
 20
2.005717
 30
0.0
 40
0.495093
210
0.0
220
0.0
230
1.0
100
AcDbArc
 50
90.676221
 51
180.660625
  0
SPLINE
  5
158
100
AcDbEntity
  8
0
370
    13
390
0
 62
     7
100
AcDbSpline
210
0.0
220
0.0
230
1.0
 70
     8
 71
     5
 72
    27
 73
    21
 74
     0
 42
0.0
 43
0.0
 40
0.0
 40
0.0
 40
0.0
 40
0.0
 40
0.0
 40
0.0
 40
0.2466930665386055
 40
0.2466930665386055
 40
0.2466930665386055
 40
0.4933861330772145
 40
0.4933861330772145
 40
0.4933861330772145
 40
1.1610490978857266
 40
1.1610490978857266
 40
1.1610490978857266
 40
2.3454077623154208
 40
2.3454077623154208
 40
2.3454077623154208
 40
5.1855085423795586
 40
5.1855085423795586
 40
5.1855085423795586
 40
5.833441556867804
 40
5.833441556867804
 40
5.833441556867804
 40
5.833441556867804
 40
5.833441556867804
 40
5.833441556867804
 10
-23.969999959603228
 20
3.0000000312810595
 30
0.0
 10
-23.969999826245562
 20
2.9671166747721256
 30
0.0
 10
-23.971378135929925
 20
2.9342558273638666
 30
0.0
 10
-23.974146193133354
 20
2.9018784291957775
 30
0.0
 10
-23.98203813063509
 20
2.8394814804374677
 30
0.0
 10
-23.99385461436939
 20
2.7821048832619426
 30
0.0
 10
-24.000568119524072
 20
2.7547437895017142
 30
0.0
 10
-24.027618734837095
 20
2.6586821284544131
 30
0.0
 10
-24.061345183364693
 20
2.5801190676430972
 30
0.0
 10
-24.087085803109058
 20
2.5303447759954092
 30
0.0
 10
-24.161292178575575
 20
2.4066044581346993
 30
0.0
 10
-24.239148883969794
 20
2.3177467489699533
 30
0.0
 10
-24.288191280856697
 20
2.2701218809127934
 30
0.0
 10
-24.454073129910196
 20
2.1323023006619728
 30
0.0
 10
-24.610321227732182
 20
2.0626186444433214
 30
0.0
 10
-24.711211995810206
 20
2.0306992287975025
 30
0.0
 10
-24.828279661482526
 20
2.0083942371663879
 30
0.0
 10
-24.933690984095101
 20
2.0012518682245495
 30
0.0
 10
-24.952868428119867
 20
2.0004051093330686
 30
0.0
 10
-24.971637585317374
 20
1.9999999999999998
 30
0.0
 10
-24.990000000000002
 20
1.9999999999999998
 30
0.0
  0
LINE
  5
159
100
AcDbEntity
  8
0
370
    13
390
0
 62
     7
 48
0.01275
100
AcDbLine
 10
-24.99
 20
2.0
 30
0.0
 11
-25.5
 21
2.0
 31
0.0
210
0.0
220
0.0
230
1.0
  0
LINE
  5
15A
100
AcDbEntity
  8
0
370
    35
390
0
 62
     7
 48
0.175891
100
AcDbLine
 10
-13.806304
 20
2.5
 30
0.0
 11
-20.841928
 21
2.5
 31
0.0
210
0.0
220
0.0
230
1.0
  0
SPLINE
  5
15B
100
AcDbEntity
  8
0
370
    13
390
0
 62
     7
100
AcDbSpline
210
0.0
220
0.0
230
1.0
 70
     8
 71
     5
 72
    12
 73
     6
 74
     0
 42
0.0
 43
0.0
 40
0.0
 40
0.0
 40
0.0
 40
0.0
 40
0.0
 40
0.0
 40
3.2840181188291404
 40
3.2840181188291404
 40
3.2840181188291404
 40
3.2840181188291404
 40
3.2840181188291404
 40
3.2840181188291404
 10
-22.120321488703446
 20
2.5702867296380556
 30
0.0
 10
-21.872696305200407
 20
2.5344701211854788
 30
0.0
 10
-21.619219331412751
 20
2.5154055492354845
 30
0.0
 10
-21.366760837876797
 20
2.5044524611505983
 30
0.0
 10
-21.105997887827396
 20
2.5000000000000009
 30
0.0
 10
-20.841927052342694
 20
2.5000000000000009
 30
0.0
  0
SPLINE
  5
15C
100
AcDbEntity
  8
0
370
    13
390
0
 62
     7
100
AcDbSpline
210
0.0
220
0.0
230
1.0
 70
     8
 71
     5
 72
    21
 73
    15
 74
     0
 42
0.0
 43
0.0
 40
0.0
 40
0.0
 40
0.0
 40
0.0
 40
0.0
 40
0.0
 40
1.3683094987941626
 40
1.3683094987941626
 40
1.3683094987941626
 40
2.1911608197966479
 40
2.1911608197966479
 40
2.1911608197966479
 40
2.6437176725277198
 40
2.6437176725277198
 40
2.6437176725277198
 40
2.7346149625581742
 40
2.7346149625581742
 40
2.7346149625581742
 40
2.7346149625581742
 40
2.7346149625581742
 40
2.7346149625581742
 10
-22.120321488703429
 20
2.5702867296380556
 30
0.0
 10
-22.22349628204125
 20
2.5852099742082548
 30
0.0
 10
-22.325655097730493
 20
2.6030416302637445
 30
0.0
 10
-22.424938646682499
 20
2.6241884435279177
 30
0.0
 10
-22.584624078024511
 20
2.6655605135094613
 30
0.0
 10
-22.737054418412697
 20
2.7261693287154571
 30
0.0
 10
-22.791056051500899
 20
2.7517385561460359
 30
0.0
 10
-22.875309850755908
 20
2.7988067971171682
 30
0.0
 10
-22.946625656396847
 20
2.8662561670336069
 30
0.0
 10
-22.971012893977033
 20
2.8947101824698853
 30
0.0
 10
-22.992653040252996
 20
2.934180950212967
 30
0.0
 10
-23.000412321328355
 20
2.9777683415326113
 30
0.0
 10
-23.001292603682625
 20
2.9851565490131708
 30
0.0
 10
-23.001731789384543
 20
2.9925782673474539
 30
0.0
 10
-23.001731789384543
 20
3.0
 30
0.0
  0
LINE
  5
15D
100
AcDbEntity
  8
0
370
    13
390
0
 62
     7
 48
0.301558
100
AcDbLine
 10
-23.001732
 20
3.0
 30
0.0
 11
-10.939394
 21
3.0
 31
0.0
210
0.0
220
0.0
230
1.0
  0
SPLINE
  5
15E
100
AcDbEntity
  8
0
370
    13
390
0
 62
     7
100
AcDbSpline
210
0.0
220
0.0
230
1.0
 70
     8
 71
     5
 72
    27
 73
    21
 74
     0
 42
0.0
 43
0.0
 40
0.0
 40
0.0
 40
0.0
 40
0.0
 40
0.0
 40
0.0
 40
0.2018717140454711
 40
0.2018717140454711
 40
0.2018717140454711
 40
0.4066161525296943
 40
0.4066161525296943
 40
0.4066161525296943
 40
1.0150290925380738
 40
1.0150290925380738
 40
1.0150290925380738
 40
1.6490416649427275
 40
1.6490416649427275
 40
1.6490416649427275
 40
3.5533828426506759
 40
3.5533828426506759
 40
3.5533828426506759
 40
6.3044252913050665
 40
6.3044252913050665
 40
6.3044252913050665
 40
6.3044252913050665
 40
6.3044252913050665
 40
6.3044252913050665
 10
-10.939393638893177
 20
3.0000000000000009
 30
0.0
 10
-10.939393885478133
 20
2.9835224827142173
 30
0.0
 10
-10.942518386594998
 20
2.9670294876650427
 30
0.0
 10
-10.948888091238803
 20
2.9508997639661643
 30
0.0
 10
-10.966121123800951
 20
2.9207399831126737
 30
0.0
 10
-10.990405223729239
 20
2.8942190498179658
 30
0.0
 10
-11.003943981401145
 20
2.8816935988708638
 30
0.0
 10
-11.061046104178114
 20
2.8352807554758916
 30
0.0
 10
-11.12930130189244
 20
2.799578899446399
 30
0.0
 10
-11.180709784894933
 20
2.7767659104933062
 30
0.0
 10
-11.291376016672029
 20
2.7346431900821777
 30
0.0
 10
-11.406098717218205
 20
2.7013101590334463
 30
0.0
 10
-11.465190392993151
 20
2.6859770883882579
 30
0.0
 10
-11.703442557576624
 20
2.6302144463045365
 30
0.0
 10
-11.947054736990571
 20
2.5934252682668606
 30
0.0
 10
-12.126235817817722
 20
2.5717583075603647
 30
0.0
 10
-12.573710342160931
 20
2.5296084785862392
 30
0.0
 10
-13.02031259656696
 20
2.5097084752092376
 30
0.0
 10
-13.283527232510037
 20
2.5028891838535223
 30
0.0
 10
-13.545506995844653
 20
2.5000000000000009
 30
0.0
 10
-13.806304319202871
 20
2.5000000000000009
 30
0.0
  0
LINE
  5
15F
100
AcDbEntity
  8
0
370
    13
390
0
 62
     7
 48
0.003546
100
AcDbLine
 10
-10.797557
 20
3.0
 30
0.0
 11
-10.939394
 21
3.0
 31
0.0
210
0.0
220
0.0
230
1.0
  0
ELLIPSE
  5
160
100
AcDbEntity
  8
0
370
    13
390
0
 62
     7
100
AcDbEllipse
 10
-13.806304
 20
2.0
 30
0.0
 11
0.0
 21
0.5
 31
0.0
210
0.0
220
0.0
230
1.0
 40
0.552252
 41
6.2831853071787691
 42
7.8539816339825004
  0
SPLINE
  5
161
100
AcDbEntity
  8
0
370
    13
390
0
 62
     7
100
AcDbSpline
210
0.0
220
0.0
230
1.0
 70
     8
 71
     5
 72
    27
 73
    21
 74
     0
 42
0.0
 43
0.0
 40
0.0
 40
0.0
 40
0.0
 40
0.0
 40
0.0
 40
0.0
 40
0.2035439275490535
 40
0.2035439275490535
 40
0.2035439275490535
 40
0.5227167307001379
 40
0.5227167307001379
 40
0.5227167307001379
 40
1.1092639856014124
 40
1.1092639856014124
 40
1.1092639856014124
 40
1.7912821323160451
 40
1.7912821323160451
 40
1.7912821323160451
 40
3.7840416191535837
 40
3.7840416191535837
 40
3.7840416191535837
 40
6.6318543496139286
 40
6.6318543496139286
 40
6.6318543496139286
 40
6.6318543496139286
 40
6.6318543496139286
 40
6.6318543496139286
 10
-10.797557028650743
 20
2.9999999885672182
 30
0.0
 10
-10.797557308451736
 20
2.9728665731963901
 30
0.0
 10
-10.800049636900978
 20
2.9457190789086707
 30
0.0
 10
-10.80510941354639
 20
2.9187473149471033
 30
0.0
 10
-10.823540137707811
 20
2.8523615401633831
 30
0.0
 10
-10.853944508660984
 20
2.7923798180840085
 30
0.0
 10
-10.875904910569393
 20
2.7581829272163194
 30
0.0
 10
-10.943594150213494
 20
2.6690997103281298
 30
0.0
 10
-11.024466766690685
 20
2.5970298946936081
 30
0.0
 10
-11.079621689044535
 20
2.5552624593638615
 30
0.0
 10
-11.202034624615129
 20
2.4744190808979618
 30
0.0
 10
-11.330370447662556
 20
2.4091853916956958
 30
0.0
 10
-11.400665641441725
 20
2.3773683499405025
 30
0.0
 10
-11.677305955782332
 20
2.264615002747639
 30
0.0
 10
-11.961709235510689
 20
2.1893716337097189
 30
0.0
 10
-12.170282090317871
 20
2.1452389377117864
 30
0.0
 10
-12.684584059138123
 20
2.0601756442919776
 30
0.0
 10
-13.195258957790937
 20
2.0197053153298308
 30
0.0
 10
-13.4938523818394
 20
2.0058738595734984
 30
0.0
 10
-13.789505428355
 20
1.9999999999999964
 30
0.0
 10
-14.082430405586939
 20
1.9999999999999964
 30
0.0
  0
ELLIPSE
  5
162
100
AcDbEntity
  8
0
370
    13
390
0
 62
     7
100
AcDbEllipse
 10
-20.841928
 20
2.0
 30
0.0
 11
-0.0000000000000001
 21
-0.5
 31
0.0
210
0.0
220
0.0
230
1.0
 40
0.833677
 41
3.1415926535897856
 42
4.7123889803846897
  0
LINE
  5
163
100
AcDbEntity
  8
0
370
    13
390
0
 62
     7
 48
0.179408
100
AcDbLine
 10
-14.08243
 20
2.0
 30
0.0
 11
-21.258767
 21
2.0
 31
0.0
210
0.0
220
0.0
230
1.0
  0
SPLINE
  5
164
100
AcDbEntity
  8
0
370
    13
390
0
 62
     7
100
AcDbSpline
210
0.0
220
0.0
230
1.0
 70
     8
 71
     5
 72
    12
 73
     6
 74
     0
 42
0.0
 43
0.0
 40
0.0
 40
0.0
 40
0.0
 40
0.0
 40
0.0
 40
0.0
 40
3.2280341314593293
 40
3.2280341314593293
 40
3.2280341314593293
 40
3.2280341314593293
 40
3.2280341314593293
 40
3.2280341314593293
 10
-22.378355328204506
 20
2.1405734592761045
 30
0.0
 10
-22.169417328558112
 20
2.0690138605685306
 30
0.0
 10
-21.950840526958785
 20
2.0306542535859289
 30
0.0
 10
-21.729257129048733
 20
2.0088642631797784
 30
0.0
 10
-21.497129622082497
 20
2.0000007943611235
 30
0.0
 10
-21.258765792989067
 20
2.0000002749412
 30
0.0
  0
LINE
  5
165
100
AcDbEntity
  8
0
370
    13
390
0
 62
     7
 48
0.002485
100
AcDbLine
 10
-23.101142
 20
3.0
 30
0.0
 11
-23.001732
 21
3.0
 31
0.0
210
0.0
220
0.0
230
1.0
  0
SPLINE
  5
166
100
AcDbEntity
  8
0
370
    13
390
0
 62
     7
100
AcDbSpline
210
0.0
220
0.0
230
1.0
 70
     8
 71
     5
 72
    21
 73
    15
 74
     0
 42
0.0
 43
0.0
 40
0.0
 40
0.0
 40
0.0
 40
0.0
 40
0.0
 40
0.0
 40
1.3490158903052367
 40
1.3490158903052367
 40
1.3490158903052367
 40
2.1812842995963559
 40
2.1812842995963559
 40
2.1812842995963559
 40
2.4732103572374955
 40
2.4732103572374955
 40
2.4732103572374955
 40
2.8189052353344444
 40
2.8189052353344444
 40
2.8189052353344444
 40
2.8189052353344444
 40
2.8189052353344444
 40
2.8189052353344444
 10
-22.37835532820451
 20
2.1405734592761152
 30
0.0
 10
-22.465671840401409
 20
2.1704786684000172
 30
0.0
 10
-22.551304926571355
 20
2.2061826292485152
 30
0.0
 10
-22.634719105312023
 20
2.2489619161141752
 30
0.0
 10
-22.766736889391851
 20
2.3325931037653445
 30
0.0
 10
-22.88908207575971
 20
2.4524036798720759
 30
0.0
 10
-22.933454234422534
 20
2.5041967970877996
 30
0.0
 10
-22.991021903171955
 20
2.5859064446370068
 30
0.0
 10
-23.03914929897801
 20
2.6907971055121473
 30
0.0
 10
-23.050911719600087
 20
2.7198872897815494
 30
0.0
 10
-23.074272476864312
 20
2.7873850745152202
 30
0.0
 10
-23.091133045768792
 20
2.8639794842402533
 30
0.0
 10
-23.097780087076348
 20
2.9078145965032087
 30
0.0
 10
-23.10114196676712
 20
2.9539073495870771
 30
0.0
 10
-23.10114196676712
 20
3.000000000000004
 30
0.0
  0
LINE
  5
167
100
AcDbEntity
  8
0
370
    35
390
0
 62
     7
 48
0.248747
100
AcDbLine
 10
4.974937
 20
2.5
 30
0.0
 11
-4.974937
 21
2.5
 31
0.0
210
0.0
220
0.0
230
1.0
  0
SPLINE
  5
168
100
AcDbEntity
  8
0
370
    13
390
0
 62
     7
100
AcDbSpline
210
0.0
220
0.0
230
1.0
 70
     8
 71
     5
 72
    27
 73
    21
 74
     0
 42
0.0
 43
0.0
 40
0.0
 40
0.0
 40
0.0
 40
0.0
 40
0.0
 40
0.0
 40
0.1853156418599806
 40
0.1853156418599806
 40
0.1853156418599806
 40
0.3728137205701594
 40
0.3728137205701594
 40
0.3728137205701594
 40
0.9299023419521434
 40
0.9299023419521434
 40
0.9299023419521434
 40
2.2682141062456238
 40
2.2682141062456238
 40
2.2682141062456238
 40
5.6495498927923808
 40
5.6495498927923808
 40
5.6495498927923808
 40
6.6919385401854319
 40
6.6919385401854319
 40
6.6919385401854319
 40
6.6919385401854319
 40
6.6919385401854319
 40
6.6919385401854319
 10
-8.5293610932538115
 20
3.0000000000002682
 30
0.0
 10
-8.5293611984906832
 20
2.9848723136528932
 30
0.0
 10
-8.5262087944419704
 20
2.969751092784441
 30
0.0
 10
-8.5197680037185215
 20
2.9548599426413071
 30
0.0
 10
-8.5022940035861314
 20
2.9270427702306536
 30
0.0
 10
-8.4774867618841903
 20
2.9024089012824521
 30
0.0
 10
-8.4636218734751179
 20
2.8907507392135749
 30
0.0
 10
-8.4049650745914466
 20
2.847433083485063
 30
0.0
 10
-8.3344664825348325
 20
2.8138555073158233
 30
0.0
 10
-8.2815672545297829
 20
2.7924428835664123
 30
0.0
 10
-8.0899022437293624
 20
2.7257305206522151
 30
0.0
 10
-7.8855970302194125
 20
2.6814128315639225
 30
0.0
 10
-7.7463848749195314
 20
2.6556812961523573
 30
0.0
 10
-7.2274700249070865
 20
2.576778930676348
 30
0.0
 10
-6.6964663433982192
 20
2.5389888496014312
 30
0.0
 10
-6.3331589259217074
 20
2.5207868982191264
 30
0.0
 10
-5.832471267699872
 20
2.5063242396892078
 30
0.0
 10
-5.3303411523629514
 20
2.501130451701981
 30
0.0
 10
-5.2119426148328554
 20
2.5003620976469496
 30
0.0
 10
-5.0934711691437986
 20
2.5
 30
0.0
 10
-4.9749356094044934
 20
2.5
 30
0.0
  0
LINE
  5
169
100
AcDbEntity
  8
0
370
    13
390
0
 62
     7
 48
0.426468
100
AcDbLine
 10
-8.529361
 20
3.0
 30
0.0
 11
8.529362
 21
3.0
 31
0.0
210
0.0
220
0.0
230
1.0
  0
SPLINE
  5
16A
100
AcDbEntity
  8
0
370
    13
390
0
 62
     7
100
AcDbSpline
210
0.0
220
0.0
230
1.0
 70
     8
 71
     5
 72
    27
 73
    21
 74
     0
 42
0.0
 43
0.0
 40
0.0
 40
0.0
 40
0.0
 40
0.0
 40
0.0
 40
0.0
 40
4.0729190661483798
 40
4.0729190661483798
 40
4.0729190661483798
 40
4.7412583813583176
 40
4.7412583813583176
 40
4.7412583813583176
 40
5.4075917243751883
 40
5.4075917243751883
 40
5.4075917243751883
 40
6.0705495604816555
 40
6.0705495604816555
 40
6.0705495604816555
 40
6.5462155404824678
 40
6.5462155404824678
 40
6.5462155404824678
 40
6.6859925497588737
 40
6.6859925497588737
 40
6.6859925497588737
 40
6.6859925497588737
 40
6.6859925497588737
 40
6.6859925497588737
 10
4.9749371855331148
 20
2.5
 30
0.0
 10
5.4380675085007013
 20
2.5
 30
0.0
 10
5.9002327148195741
 20
2.5055276060437768
 30
0.0
 10
6.3364153991087004
 20
2.5192218810900573
 30
0.0
 10
6.8717612994316273
 20
2.5462867843483252
 30
0.0
 10
7.3984349074741509
 20
2.6071545035610524
 30
0.0
 10
7.4725106937465871
 20
2.6164915265486783
 30
0.0
 10
7.6198300830659322
 20
2.6368196661548255
 30
0.0
 10
7.7658950981903958
 20
2.6611756125721184
 30
0.0
 10
7.8383700761809694
 20
2.6744903204141255
 30
0.0
 10
7.9820483721076645
 20
2.7038013148193514
 30
0.0
 10
8.1224040041455972
 20
2.7401640437688948
 30
0.0
 10
8.1912994765535476
 20
2.7605646862499835
 30
0.0
 10
8.3071572371429117
 20
2.8001065628997854
 30
0.0
 10
8.4119571341732886
 20
2.8530597263998025
 30
0.0
 10
8.4540419554499042
 20
2.8786039672048274
 30
0.0
 10
8.5013567367197851
 20
2.9182149937043382
 30
0.0
 10
8.5239400445023517
 20
2.9658843065682783
 30
0.0
 10
8.5275735692458756
 20
2.9772174458688876
 30
0.0
 10
8.5293625287517898
 20
2.9886057482407695
 30
0.0
 10
8.5293621348840425
 20
2.9999999999999996
 30
0.0
  0
LINE
  5
16B
100
AcDbEntity
  8
0
370
    13
390
0
 62
     7
 48
0.004265
100
AcDbLine
 10
-8.529361
 20
3.0
 30
0.0
 11
-8.699948
 21
3.0
 31
0.0
210
0.0
220
0.0
230
1.0
  0
SPLINE
  5
16C
100
AcDbEntity
  8
0
370
    13
390
0
 62
     7
100
AcDbSpline
210
0.0
220
0.0
230
1.0
 70
     8
 71
     5
 72
    30
 73
    24
 74
     0
 42
0.0
 43
0.0
 40
0.0
 40
0.0
 40
0.0
 40
0.0
 40
0.0
 40
0.0
 40
0.1999846333996173
 40
0.1999846333996173
 40
0.1999846333996173
 40
0.5138045856415971
 40
0.5138045856415971
 40
0.5138045856415971
 40
1.0924894563524468
 40
1.0924894563524468
 40
1.0924894563524468
 40
1.7843270992930913
 40
1.7843270992930913
 40
1.7843270992930913
 40
3.1412482679068727
 40
3.1412482679068727
 40
3.1412482679068727
 40
6.5359347604420925
 40
6.5359347604420925
 40
6.5359347604420925
 40
6.825458913816691
 40
6.825458913816691
 40
6.825458913816691
 40
6.825458913816691
 40
6.825458913816691
 40
6.825458913816691
 10
-8.6999483146755949
 20
3.0000000000001563
 30
0.0
 10
-8.6999484076249516
 20
2.9733392364307605
 30
0.0
 10
-8.697451622023685
 20
2.9466850966980092
 30
0.0
 10
-8.6923851540296173
 20
2.9201674971009459
 30
0.0
 10
-8.6739107463180503
 20
2.8549034345264288
 30
0.0
 10
-8.6433654686356682
 20
2.7958515784704017
 30
0.0
 10
-8.6212300150139676
 20
2.7621112303754112
 30
0.0
 10
-8.5528506812937248
 20
2.6741191681009555
 30
0.0
 10
-8.4708598479000159
 20
2.6028896413628653
 30
0.0
 10
-8.4150639267882443
 20
2.5617760567827901
 30
0.0
 10
-8.2884144195890403
 20
2.4805034333518541
 30
0.0
 10
-8.1553296791446854
 20
2.4152941229445188
 30
0.0
 10
-8.081406775266041
 20
2.383149380790464
 30
0.0
 10
-7.8603701398308488
 20
2.2969700787688385
 30
0.0
 10
-7.633622815539904
 20
2.2328663030216713
 30
0.0
 10
-7.4816341464777745
 20
2.1967274232415659
 30
0.0
 10
-6.9470255759196355
 20
2.0895067431722731
 30
0.0
 10
-6.4042302132255209
 20
2.0370372359338251
 30
0.0
 10
-6.0223584444862164
 20
2.0143828281386034
 30
0.0
 10
-5.5988843931715664
 20
2.0023438912283948
 30
0.0
 10
-5.1745133803575625
 20
2.0001675521661828
 30
0.0
 10
-5.1411586813595358
 20
2.0000554413061096
 30
0.0
 10
-5.1077989721213326
 20
2.0000003211365756
 30
0.0
 10
-5.0744343465562523
 20
2.0000003383380331
 30
0.0
  0
ELLIPSE
  5
16D
100
AcDbEntity
  8
0
370
    13
390
0
 62
     7
100
AcDbEllipse
 10
-4.974936
 20
2.0
 30
0.0
 11
0.0000000063373324
 21
-0.4999998509883881
 31
0.0
210
0.0
220
0.0
230
1.0
 40
0.198997
 41
3.1415926079209591
 42
4.7123889778628021
  0
LINE
  5
16E
100
AcDbEntity
  8
0
370
    13
390
0
 62
     7
 48
0.253722
100
AcDbLine
 10
5.074436
 20
2.0
 30
0.0
 11
-5.074436
 21
2.0
 31
0.0
210
0.0
220
0.0
230
1.0
  0
ELLIPSE
  5
16F
100
AcDbEntity
  8
0
370
    13
390
0
 62
     7
100
AcDbEllipse
 10
4.974937
 20
2.0
 30
0.0
 11
0.0
 21
0.5
 31
0.0
210
0.0
220
0.0
230
1.0
 40
0.198997
 41
4.7123889803846897
 42
6.2831853071796031
  0
SPLINE
  5
170
100
AcDbEntity
  8
0
370
    13
390
0
 62
     7
100
AcDbSpline
210
0.0
220
0.0
230
1.0
 70
     8
 71
     5
 72
    27
 73
    21
 74
     0
 42
0.0
 43
0.0
 40
0.0
 40
0.0
 40
0.0
 40
0.0
 40
0.0
 40
0.0
 40
4.0971964213831846
 40
4.0971964213831846
 40
4.0971964213831846
 40
4.7734541713950289
 40
4.7734541713950289
 40
4.7734541713950289
 40
5.4513483650255061
 40
5.4513483650255061
 40
5.4513483650255061
 40
6.1366299175874595
 40
6.1366299175874595
 40
6.1366299175874595
 40
6.6499832344670331
 40
6.6499832344670331
 40
6.6499832344670331
 40
6.8496574024501173
 40
6.8496574024501173
 40
6.8496574024501173
 40
6.8496574024501173
 40
6.8496574024501173
 40
6.8496574024501173
 10
5.0744359292437746
 20
2.0000000000000004
 30
0.0
 10
5.5465717841154643
 20
2.0000000000000004
 30
0.0
 10
6.0177369750502576
 20
2.0110433404006032
 30
0.0
 10
6.4652667411152454
 20
2.0384126143571755
 30
0.0
 10
7.0115138794556353
 20
2.0931466205293634
 30
0.0
 10
7.545806828901382
 20
2.214167788660629
 30
0.0
 10
7.621279683403146
 20
2.2328124388181165
 30
0.0
 10
7.771539826904001
 20
2.2734450632298366
 30
0.0
 10
7.9199975873009159
 20
2.3219343446445055
 30
0.0
 10
7.9937628081843268
 20
2.3484759489883964
 30
0.0
 10
8.1405950776982294
 20
2.4071485908568753
 30
0.0
 10
8.2827952689329774
 20
2.479197215004842
 30
0.0
 10
8.3520274936602714
 20
2.5191916385073134
 30
0.0
 10
8.4706876651994119
 20
2.5986194818318911
 30
0.0
 10
8.5753878830240637
 20
2.700821471279927
 30
0.0
 10
8.6179381397069079
 20
2.7510564817708012
 30
0.0
 10
8.6668349381191216
 20
2.8297623974732593
 30
0.0
 10
8.6924187887915085
 20
2.9203371224431294
 30
0.0
 10
8.6974646188634885
 20
2.946821892146311
 30
0.0
 10
8.699949833754923
 20
2.9734055902779222
 30
0.0
 10
8.6999493688483334
 20
3.0000000231164297
 30
0.0
  0
LINE
  5
171
100
AcDbEntity
  8
0
370
    13
390
0
 62
     7
 48
0.004265
100
AcDbLine
 10
8.529362
 20
3.0
 30
0.0
 11
8.699949
 21
3.0
 31
0.0
210
0.0
220
0.0
230
1.0
  0
LINE
  5
172
100
AcDbEntity
  8
0
370
    13
390
0
 62
     7
 48
0.219199
100
AcDbLine
 10
23.001732
 20
3.0
 30
0.0
 11
23.001732
 21
11.767949
 31
0.0
210
0.0
220
0.0
230
1.0
  0
LINE
  5
173
100
AcDbEntity
  8
0
370
    13
390
0
 62
     7
 48
0.219199
100
AcDbLine
 10
10.939394
 20
3.0
 30
0.0
 11
10.939394
 21
11.767962
 31
0.0
210
0.0
220
0.0
230
1.0
  0
SPLINE
  5
174
100
AcDbEntity
  8
0
370
    13
390
0
 62
     7
100
AcDbSpline
210
0.0
220
0.0
230
1.0
 70
     8
 71
     5
 72
    18
 73
    12
 74
     0
 42
0.0
 43
0.0
 40
4.8480476302744195
 40
4.8480476302744195
 40
4.8480476302744195
 40
4.8480476302744195
 40
4.8480476302744195
 40
4.8480476302744195
 40
9.8801283170015104
 40
9.8801283170015104
 40
9.8801283170015104
 40
22.61222886980503
 40
22.61222886980503
 40
22.61222886980503
 40
29.268964054287864
 40
29.268964054287864
 40
29.268964054287864
 40
29.268964054287864
 40
29.268964054287864
 40
29.268964054287864
 10
23.001732532903219
 20
11.767954530578885
 30
0.0
 10
22.501795907456316
 20
11.90722089818312
 30
0.0
 10
22.002425329236615
 20
12.033577418266976
 30
0.0
 10
21.503696851631663
 20
12.146445401024948
 30
0.0
 10
19.745375391501863
 20
12.495585442055347
 30
0.0
 10
17.995238864829023
 20
12.666124695500411
 30
0.0
 10
16.744261949758151
 20
12.691012225874537
 30
0.0
 10
14.836334259029625
 20
12.579822472639995
 30
0.0
 10
12.919890244944888
 20
12.251452515958398
 30
0.0
 10
12.260855924379054
 20
12.113773430912188
 30
0.0
 10
11.600639311984896
 20
11.952166150830189
 30
0.0
 10
10.939393707569751
 20
11.767961651243198
 30
0.0
  0
LINE
  5
175
100
AcDbEntity
  8
0
370
    13
390
0
 62
     7
 48
0.219199
100
AcDbLine
 10
23.101142
 20
3.0
 30
0.0
 11
23.101142
 21
11.767949
 31
0.0
210
0.0
220
0.0
230
1.0
  0
LINE
  5
176
100
AcDbEntity
  8
0
370
    13
390
0
 62
     7
 48
0.002485
100
AcDbLine
 10
23.101142
 20
11.767949
 30
0.0
 11
23.001732
 21
11.767949
 31
0.0
210
0.0
220
0.0
230
1.0
  0
LINE
  5
177
100
AcDbEntity
  8
0
370
    13
390
0
 62
     7
 48
0.219199
100
AcDbLine
 10
10.797557
 20
3.0
 30
0.0
 11
10.797557
 21
11.767949
 31
0.0
210
0.0
220
0.0
230
1.0
  0
LINE
  5
178
100
AcDbEntity
  8
0
370
    13
390
0
 62
     7
 48
0.003546
100
AcDbLine
 10
10.939394
 20
11.767949
 30
0.0
 11
10.797557
 21
11.767949
 31
0.0
210
0.0
220
0.0
230
1.0
  0
LINE
  5
179
100
AcDbEntity
  8
0
370
    35
390
0
 62
     7
 48
0.219199
100
AcDbLine
 10
24.0
 20
11.767962
 30
0.0
 11
24.0
 21
3.0
 31
0.0
210
0.0
220
0.0
230
1.0
  0
LINE
  5
17A
100
AcDbEntity
  8
0
370
    35
390
0
 62
     7
 48
0.021651
100
AcDbLine
 10
24.0
 20
12.633985
 30
0.0
 11
24.0
 21
11.767962
 31
0.0
210
0.0
220
0.0
230
1.0
  0
LINE
  5
17B
100
AcDbEntity
  8
0
370
    13
390
0
 62
     7
 48
0.219199
100
AcDbLine
 10
23.97
 20
11.767949
 30
0.0
 11
23.97
 21
3.0
 31
0.0
210
0.0
220
0.0
230
1.0
  0
LINE
  5
17C
100
AcDbEntity
  8
0
370
    13
390
0
 62
     7
 48
0.00075
100
AcDbLine
 10
23.97
 20
11.767949
 30
0.0
 11
24.0
 21
11.767949
 31
0.0
210
0.0
220
0.0
230
1.0
  0
LINE
  5
17D
100
AcDbEntity
  8
0
370
    35
390
0
 62
     7
 48
0.219199
100
AcDbLine
 10
-24.0
 20
11.767949
 30
0.0
 11
-24.0
 21
3.0
 31
0.0
210
0.0
220
0.0
230
1.0
  0
LINE
  5
17E
100
AcDbEntity
  8
0
370
    35
390
0
 62
     7
 48
0.021651
100
AcDbLine
 10
-24.0
 20
11.767955
 30
0.0
 11
-24.0
 21
12.633985
 31
0.0
210
0.0
220
0.0
230
1.0
  0
LINE
  5
17F
100
AcDbEntity
  8
0
370
    13
390
0
 62
     7
 48
0.219199
100
AcDbLine
 10
-23.97
 20
11.767949
 30
0.0
 11
-23.97
 21
3.0
 31
0.0
210
0.0
220
0.0
230
1.0
  0
LINE
  5
180
100
AcDbEntity
  8
0
370
    13
390
0
 62
     7
 48
0.00075
100
AcDbLine
 10
-24.0
 20
11.767949
 30
0.0
 11
-23.97
 21
11.767949
 31
0.0
210
0.0
220
0.0
230
1.0
  0
LINE
  5
181
100
AcDbEntity
  8
0
370
    13
390
0
 62
     7
 48
0.219199
100
AcDbLine
 10
-10.939394
 20
11.767949
 30
0.0
 11
-10.939394
 21
3.0
 31
0.0
210
0.0
220
0.0
230
1.0
  0
LINE
  5
182
100
AcDbEntity
  8
0
370
    13
390
0
 62
     7
 48
0.219199
100
AcDbLine
 10
-23.001732
 20
3.0
 30
0.0
 11
-23.001732
 21
11.76795
 31
0.0
210
0.0
220
0.0
230
1.0
  0
ARC
  5
183
100
AcDbEntity
  8
0
370
    13
390
0
 62
     7
100
AcDbCircle
 10
-15.994126
 20
-13.347479
 30
0.0
 40
26.074698
210
0.0
220
0.0
230
1.0
100
AcDbArc
 50
102.969501
 51
105.589951
  0
SPLINE
  5
184
100
AcDbEntity
  8
0
370
    13
390
0
 62
     7
100
AcDbSpline
210
0.0
220
0.0
230
1.0
 70
     8
 71
     5
 72
    18
 73
    12
 74
     0
 42
0.0
 43
0.0
 40
4.848047630238999
 40
4.848047630238999
 40
4.848047630238999
 40
4.848047630238999
 40
4.848047630238999
 40
4.848047630238999
 40
9.880128316926605
 40
9.880128316926605
 40
9.880128316926605
 40
22.612228869779514
 40
22.612228869779514
 40
22.612228869779514
 40
26.939039713671658
 40
26.939039713671658
 40
26.939039713671658
 40
26.939039713671658
 40
26.939039713671658
 40
26.939039713671658
 10
-10.939392964051349
 20
11.76795453057685
 30
0.0
 10
-11.439329589501915
 20
11.907220898181269
 30
0.0
 10
-11.938700167725443
 20
12.033577418265674
 30
0.0
 10
-12.437428645331428
 20
12.146445401024565
 30
0.0
 10
-14.195750105458686
 20
12.495585442061586
 30
0.0
 10
-15.945886632141358
 20
12.666124695488985
 30
0.0
 10
-17.196863547186382
 20
12.691012225833481
 30
0.0
 10
-18.875518721150392
 20
12.593183961503215
 30
0.0
 10
-20.560766412855433
 20
12.327235689867466
 30
0.0
 10
-20.988701325414901
 20
12.249135422400171
 30
0.0
 10
-21.417164810987401
 20
12.160626965760896
 30
0.0
 10
-21.846126114268486
 20
12.062019029508102
 30
0.0
  0
LINE
  5
185
100
AcDbEntity
  8
0
370
    13
390
0
 62
     7
 48
0.219199
100
AcDbLine
 10
-23.101142
 20
3.0
 30
0.0
 11
-23.101142
 21
11.767949
 31
0.0
210
0.0
220
0.0
230
1.0
  0
LINE
  5
186
100
AcDbEntity
  8
0
370
    13
390
0
 62
     7
 48
0.002485
100
AcDbLine
 10
-23.001732
 20
11.767949
 30
0.0
 11
-23.101142
 21
11.767949
 31
0.0
210
0.0
220
0.0
230
1.0
  0
LINE
  5
187
100
AcDbEntity
  8
0
370
    13
390
0
 62
     7
 48
0.219199
100
AcDbLine
 10
-10.797557
 20
11.767949
 30
0.0
 11
-10.797557
 21
3.0
 31
0.0
210
0.0
220
0.0
230
1.0
  0
LINE
  5
188
100
AcDbEntity
  8
0
370
    13
390
0
 62
     7
 48
0.003546
100
AcDbLine
 10
-10.939394
 20
11.767949
 30
0.0
 11
-10.797557
 21
11.767949
 31
0.0
210
0.0
220
0.0
230
1.0
  0
LINE
  5
189
100
AcDbEntity
  8
0
370
    13
390
0
 62
     7
 48
0.219199
100
AcDbLine
 10
8.529361
 20
3.0
 30
0.0
 11
8.529361
 21
11.767949
 31
0.0
210
0.0
220
0.0
230
1.0
  0
LINE
  5
18A
100
AcDbEntity
  8
0
370
    13
390
0
 62
     7
 48
0.219199
100
AcDbLine
 10
-8.529361
 20
3.0
 30
0.0
 11
-8.529361
 21
11.767962
 31
0.0
210
0.0
220
0.0
230
1.0
  0
SPLINE
  5
18B
100
AcDbEntity
  8
0
370
    13
390
0
 62
     7
100
AcDbSpline
210
0.0
220
0.0
230
1.0
 70
     8
 71
     5
 72
    18
 73
    12
 74
     0
 42
0.0
 43
0.0
 40
4.8480476302526236
 40
4.8480476302526236
 40
4.8480476302526236
 40
4.8480476302526236
 40
4.8480476302526236
 40
4.8480476302526236
 40
9.8801283169706746
 40
9.8801283169706746
 40
9.8801283169706746
 40
22.612228869897525
 40
22.612228869897525
 40
22.612228869897525
 40
29.268964054324311
 40
29.268964054324311
 40
29.268964054324311
 40
29.268964054324311
 40
29.268964054324311
 40
29.268964054324311
 10
8.5293621061099234
 20
11.767954530577439
 30
0.0
 10
7.8223449500739646
 20
11.907220898182079
 30
0.0
 10
7.1161283057046933
 20
12.033577418266379
 30
0.0
 10
6.410819728734638
 20
12.146445401024772
 30
0.0
 10
3.9241776727914122
 20
12.495585442059191
 30
0.0
 10
1.4491108607502907
 20
12.666124695499407
 30
0.0
 10
-0.3200376586898672
 20
12.691012225877085
 30
0.0
 10
-3.0182548749546072
 20
12.579822472641828
 30
0.0
 10
-5.7285159912113519
 20
12.251452515960622
 30
0.0
 10
-6.6605312654288529
 20
12.113773430909411
 30
0.0
 10
-7.5942185527877744
 20
11.952166150823146
 30
0.0
 10
-8.5293610546159844
 20
11.767961651234957
 30
0.0
  0
LINE
  5
18C
100
AcDbEntity
  8
0
370
    13
390
0
 62
     7
 48
0.219199
100
AcDbLine
 10
8.699948
 20
3.0
 30
0.0
 11
8.699948
 21
11.767949
 31
0.0
210
0.0
220
0.0
230
1.0
  0
LINE
  5
18D
100
AcDbEntity
  8
0
370
    13
390
0
 62
     7
 48
0.004265
100
AcDbLine
 10
8.699948
 20
11.767949
 30
0.0
 11
8.529361
 21
11.767949
 31
0.0
210
0.0
220
0.0
230
1.0
  0
LINE
  5
18E
100
AcDbEntity
  8
0
370
    13
390
0
 62
     7
 48
0.219199
100
AcDbLine
 10
-8.699948
 20
3.0
 30
0.0
 11
-8.699948
 21
11.767949
 31
0.0
210
0.0
220
0.0
230
1.0
  0
LINE
  5
18F
100
AcDbEntity
  8
0
370
    13
390
0
 62
     7
 48
0.004265
100
AcDbLine
 10
-8.529361
 20
11.767949
 30
0.0
 11
-8.699948
 21
11.767949
 31
0.0
210
0.0
220
0.0
230
1.0
  0
ARC
  5
190
100
AcDbEntity
  8
0
370
    13
390
0
 62
     7
100
AcDbCircle
 10
-15.862809
 20
-13.072256
 30
0.0
 40
26.227852
210
0.0
220
0.0
230
1.0
100
AcDbArc
 50
102.886092
 51
105.506243
  0
ELLIPSE
  5
191
100
AcDbEntity
  8
0
370
    13
390
0
 62
     7
100
AcDbEllipse
 10
-22.648178
 20
11.76795
 30
0.0
 11
0.1341750621795654
 21
-0.4816607534885407
 31
0.0
210
0.0
220
0.0
230
1.0
 40
0.693776
 41
3.4399737919116982
 42
4.521479228255691
  0
ELLIPSE
  5
192
100
AcDbEntity
  8
0
370
    13
390
0
 62
     7
100
AcDbEllipse
 10
-22.648178
 20
11.767949
 30
0.0
 11
-0.0000000000000045
 21
-0.5
 31
0.0
210
0.0
220
0.0
230
1.0
 40
0.905927
 41
3.6651914291881016
 42
4.7123889803846941
  0
LINE
  5
193
100
AcDbEntity
  8
0
370
    13
390
0
 62
     7
 48
0.021508
100
AcDbLine
 10
-22.87466
 20
12.200962
 30
0.0
 11
-23.735
 21
12.200962
 31
0.0
210
0.0
220
0.0
230
1.0
  0
ELLIPSE
  5
194
100
AcDbEntity
  8
0
370
    13
390
0
 62
     7
100
AcDbEllipse
 10
-23.5
 20
11.767949
 30
0.0
 11
-0.0000000000000001
 21
-0.5
 31
0.0
210
0.0
220
0.0
230
1.0
 40
0.94
 41
3.6651914291880847
 42
4.7123889803846923
  0
LINE
  5
195
100
AcDbEntity
  8
0
370
    13
390
0
 62
     7
 48
0.021721
100
AcDbLine
 10
-23.101142
 20
11.767949
 30
0.0
 11
-23.97
 21
11.767949
 31
0.0
210
0.0
220
0.0
230
1.0
  0
ELLIPSE
  5
196
100
AcDbEntity
  8
0
370
    13
390
0
 62
     7
100
AcDbEllipse
 10
-23.5
 20
11.767949
 30
0.0
 11
-0.5
 21
-0.0000000000000321
 31
0.0
210
0.0
220
0.0
230
1.0
 40
0.981147
 41
5.2016797583987362
 42
6.2831853071795134
  0
LINE
  5
197
100
AcDbEntity
  8
0
370
    13
390
0
 62
     7
 48
0.021654
100
AcDbLine
 10
-23.734996
 20
12.200964
 30
0.0
 11
-23.749981
 21
13.066998
 31
0.0
210
0.0
220
0.0
230
1.0
  0
LINE
  5
198
100
AcDbEntity
  8
0
370
    13
390
0
 62
     7
 48
0.021654
100
AcDbLine
 10
23.749981
 20
13.066998
 30
0.0
 11
23.734992
 21
12.200974
 31
0.0
210
0.0
220
0.0
230
1.0
  0
ARC
  5
199
100
AcDbEntity
  8
0
370
    13
390
0
 62
     7
100
AcDbCircle
 10
23.510865
 20
11.76573
 30
0.0
 40
0.489338
210
0.0
220
0.0
230
1.0
100
AcDbArc
 50
0.261364
 51
62.753106
  0
ELLIPSE
  5
19A
100
AcDbEntity
  8
0
370
    13
390
0
 62
     7
100
AcDbEllipse
 10
23.5
 20
11.767949
 30
0.0
 11
-0.000000000000021
 21
-0.5
 31
0.0
210
0.0
220
0.0
230
1.0
 40
0.94
 41
1.570796326794939
 42
2.6179938779915388
  0
LINE
  5
19B
100
AcDbEntity
  8
0
370
    13
390
0
 62
     7
 48
0.021508
100
AcDbLine
 10
23.735
 20
12.200962
 30
0.0
 11
22.87466
 21
12.200962
 31
0.0
210
0.0
220
0.0
230
1.0
  0
ELLIPSE
  5
19C
100
AcDbEntity
  8
0
370
    13
390
0
 62
     7
100
AcDbEllipse
 10
22.648178
 20
11.767949
 30
0.0
 11
-0.0000000000000001
 21
-0.5
 31
0.0
210
0.0
220
0.0
230
1.0
 40
0.905927
 41
1.5707963267948966
 42
2.617993877991506
  0
LINE
  5
19D
100
AcDbEntity
  8
0
370
    13
390
0
 62
     7
 48
0.021721
100
AcDbLine
 10
23.97
 20
11.767949
 30
0.0
 11
23.101142
 21
11.767949
 31
0.0
210
0.0
220
0.0
230
1.0
  0
ELLIPSE
  5
19E
100
AcDbEntity
  8
0
370
    13
390
0
 62
     7
100
AcDbEllipse
 10
22.648178
 20
11.767949
 30
0.0
 11
-0.1341751515865326
 21
-0.4816606938838959
 31
0.0
210
0.0
220
0.0
230
1.0
 40
0.693776
 41
1.7617061937990757
 42
2.8432117425798631
  0
SPLINE
  5
19F
100
AcDbEntity
  8
0
370
    13
390
0
 62
     7
100
AcDbSpline
210
0.0
220
0.0
230
1.0
 70
     8
 71
     5
 72
    15
 73
     9
 74
     0
 42
0.0
 43
0.0
 40
0.0
 40
0.0
 40
0.0
 40
0.0
 40
0.0
 40
0.0
 40
13.695579214431241
 40
13.695579214431241
 40
13.695579214431241
 40
27.369190730706464
 40
27.369190730706464
 40
27.369190730706464
 40
27.369190730706464
 40
27.369190730706464
 40
27.369190730706464
 10
22.874657831887205
 20
12.200963824919102
 30
0.0
 10
21.65985017663974
 20
12.537476318840204
 30
0.0
 10
20.442371041955312
 20
12.799848416105572
 30
0.0
 10
19.225164227794721
 20
12.978362678552053
 30
0.0
 10
16.789575166339578
 20
13.156325068247718
 30
0.0
 10
14.350279118194479
 20
12.976976902729161
 30
0.0
 10
13.131112673129081
 20
12.798337495598268
 30
0.0
 10
11.910644171357255
 20
12.536488743289455
 30
0.0
 10
10.691722605585854
 20
12.20097435313588
 30
0.0
  0
ELLIPSE
  5
1A0
100
AcDbEntity
  8
0
370
    13
390
0
 62
     7
100
AcDbEllipse
 10
10.58584
 20
11.767962
 30
0.0
 11
0.1341741532087326
 21
-0.4816612899303436
 31
0.0
210
0.0
220
0.0
230
1.0
 40
0.693775
 41
1.3798881211313956
 42
2.4613920081408129
  0
ELLIPSE
  5
1A1
100
AcDbEntity
  8
0
370
    13
390
0
 62
     7
100
AcDbEllipse
 10
10.58584
 20
11.767949
 30
0.0
 11
-0.0000000000000081
 21
-0.5
 31
0.0
210
0.0
220
0.0
230
1.0
 40
0.423434
 41
1.5707963267949034
 42
2.6179938779914993
  0
LINE
  5
1A2
100
AcDbEntity
  8
0
370
    13
390
0
 62
     7
 48
0.051926
100
AcDbLine
 10
10.691699
 20
12.200962
 30
0.0
 11
8.614655
 21
12.200962
 31
0.0
210
0.0
220
0.0
230
1.0
  0
ELLIPSE
  5
1A3
100
AcDbEntity
  8
0
370
    13
390
0
 62
     7
100
AcDbEllipse
 10
8.529361
 20
11.767949
 30
0.0
 11
-0.0000000000000001
 21
-0.5
 31
0.0
210
0.0
220
0.0
230
1.0
 40
0.341174
 41
1.5707963267948928
 42
2.6179938779914869
  0
LINE
  5
1A4
100
AcDbEntity
  8
0
370
    13
390
0
 62
     7
 48
0.05244
100
AcDbLine
 10
10.797557
 20
11.767949
 30
0.0
 11
8.699948
 21
11.767949
 31
0.0
210
0.0
220
0.0
230
1.0
  0
LINE
  5
1A5
100
AcDbEntity
  8
0
370
    13
390
0
 62
     7
 48
0.011033
100
AcDbLine
 10
8.529361
 20
11.767949
 30
0.0
 11
8.614655
 21
12.200962
 31
0.0
210
0.0
220
0.0
230
1.0
  0
SPLINE
  5
1A6
100
AcDbEntity
  8
0
370
    13
390
0
 62
     7
100
AcDbSpline
210
0.0
220
0.0
230
1.0
 70
     8
 71
     5
 72
    18
 73
    12
 74
     0
 42
0.0
 43
0.0
 40
0.0
 40
0.0
 40
0.0
 40
0.0
 40
0.0
 40
0.0
 40
12.00762558491993
 40
12.00762558491993
 40
12.00762558491993
 40
23.96063739515829
 40
23.96063739515829
 40
23.96063739515829
 40
29.95417758025582
 40
29.95417758025582
 40
29.95417758025582
 40
29.95417758025582
 40
29.95417758025582
 40
29.95417758025582
 10
8.6146550303876932
 20
12.200963824918164
 30
0.0
 10
7.2347966876583047
 20
12.470384342392672
 30
0.0
 10
5.8532960173300825
 20
12.692238881746897
 30
0.0
 10
4.4721108927061222
 20
12.861641408998207
 30
0.0
 10
1.7149148209276426
 20
13.088385209729914
 30
0.0
 10
-1.0417712519330218
 20
13.088248556605361
 30
0.0
 10
-2.4170020838523438
 20
13.0306010613136
 30
0.0
 10
-4.4826001054395563
 20
12.859347193627734
 30
0.0
 10
-6.5472634307503084
 20
12.568268900976664
 30
0.0
 10
-7.2368567188069761
 20
12.45805664746219
 30
0.0
 10
-7.9259287264080855
 20
12.335441938362386
 30
0.0
 10
-8.6146130379757775
 20
12.200974353127178
 30
0.0
  0
LINE
  5
1A7
100
AcDbEntity
  8
0
370
    13
390
0
 62
     7
 48
0.011033
100
AcDbLine
 10
-8.614654
 20
12.200974
 30
0.0
 11
-8.529361
 21
11.767962
 31
0.0
210
0.0
220
0.0
230
1.0
  0
ELLIPSE
  5
1A8
100
AcDbEntity
  8
0
370
    13
390
0
 62
     7
100
AcDbEllipse
 10
-8.529361
 20
11.767949
 30
0.0
 11
-0.0000000000000076
 21
-0.5
 31
0.0
210
0.0
220
0.0
230
1.0
 40
0.341174
 41
3.6651914291880945
 42
4.7123889803846986
  0
LINE
  5
1A9
100
AcDbEntity
  8
0
370
    13
390
0
 62
     7
 48
0.051926
100
AcDbLine
 10
-8.614655
 20
12.200962
 30
0.0
 11
-10.691699
 21
12.200962
 31
0.0
210
0.0
220
0.0
230
1.0
  0
ELLIPSE
  5
1AA
100
AcDbEntity
  8
0
370
    13
390
0
 62
     7
100
AcDbEllipse
 10
-10.58584
 20
11.767949
 30
0.0
 11
-0.0000000000000001
 21
-0.5
 31
0.0
210
0.0
220
0.0
230
1.0
 40
0.423434
 41
3.6651914291880887
 42
4.7123889803846932
  0
LINE
  5
1AB
100
AcDbEntity
  8
0
370
    13
390
0
 62
     7
 48
0.05244
100
AcDbLine
 10
-8.699948
 20
11.767949
 30
0.0
 11
-10.797557
 21
11.767949
 31
0.0
210
0.0
220
0.0
230
1.0
  0
ELLIPSE
  5
1AC
100
AcDbEntity
  8
0
370
    13
390
0
 62
     7
100
AcDbEllipse
 10
-10.58584
 20
11.767949
 30
0.0
 11
-0.1341751515865326
 21
-0.4816606938838959
 31
0.0
210
0.0
220
0.0
230
1.0
 40
0.693776
 41
3.8217932986080045
 42
4.9032988473887675
  0
SPLINE
  5
1AD
100
AcDbEntity
  8
0
370
    13
390
0
 62
     7
100
AcDbSpline
210
0.0
220
0.0
230
1.0
 70
     8
 71
     5
 72
    15
 73
     9
 74
     0
 42
0.0
 43
0.0
 40
0.0
 40
0.0
 40
0.0
 40
0.0
 40
0.0
 40
0.0
 40
12.40243716104848
 40
12.40243716104848
 40
12.40243716104848
 40
24.745871696821535
 40
24.745871696821535
 40
24.745871696821535
 40
24.745871696821535
 40
24.745871696821535
 40
24.745871696821535
 10
-10.691695852749124
 20
12.200963824917777
 30
0.0
 10
-11.797425630102946
 20
12.505319945183336
 30
0.0
 10
-12.90452110266167
 20
12.749083051423252
 30
0.0
 10
-14.010456508008032
 20
12.925049397001512
 30
0.0
 10
-16.216579308572648
 20
13.131858992791161
 30
0.0
 10
-18.419411913034743
 20
13.047102095018914
 30
0.0
 10
-19.517436493615495
 20
12.931480221952496
 30
0.0
 10
-20.615402244776405
 20
12.745443016924813
 30
0.0
 10
-21.711968364147811
 20
12.495031731400321
 30
0.0
  0
LINE
  5
1AE
100
AcDbEntity
  8
0
370
    13
390
0
 62
     7
100
AcDbLine
 10
23.0
 20
14.07735
 30
0.0
 11
-20.184399
 21
14.07735
 31
0.0
210
0.0
220
0.0
230
1.0
  0
LINE
  5
1AF
100
AcDbEntity
  8
0
370
    13
390
0
 62
     7
 48
0.07039
100
AcDbLine
 10
-23.0
 20
14.07735
 30
0.0
 11
-20.184399
 21
14.07735
 31
0.0
210
0.0
220
0.0
230
1.0
  0
LINE
  5
1B0
100
AcDbEntity
  8
0
370
    13
390
0
 62
     7
 48
0.07192
100
AcDbLine
 10
-23.5
 20
13.211325
 30
0.0
 11
-20.62319
 21
13.211325
 31
0.0
210
0.0
220
0.0
230
1.0
  0
LINE
  5
1B1
100
AcDbEntity
  8
0
370
    13
390
0
 62
     7
100
AcDbLine
 10
23.5
 20
13.211325
 30
0.0
 11
-20.62319
 21
13.211325
 31
0.0
210
0.0
220
0.0
230
1.0
  0
ARC
  5
1B2
100
AcDbEntity
  8
0
370
    35
390
0
 62
     7
100
AcDbCircle
 10
23.5
 20
-13.0
 30
0.0
 40
2.5
210
0.0
220
0.0
230
1.0
100
AcDbArc
 50
270.0
 51
360.0
  0
ARC
  5
1B3
100
AcDbEntity
  8
0
370
    35
390
0
 62
     7
100
AcDbCircle
 10
-23.5
 20
-13.0
 30
0.0
 40
2.5
210
0.0
220
0.0
230
1.0
100
AcDbArc
 50
180.0
 51
270.0
  0
LINE
  5
1B4
100
AcDbEntity
  8
0
370
    35
390
0
 62
     7
 48
0.031958
100
AcDbLine
 10
-10.4
 20
-22.5
 30
0.0
 11
-10.4
 21
-23.778312
 31
0.0
210
0.0
220
0.0
230
1.0
  0
LINE
  5
1B5
100
AcDbEntity
  8
0
370
    35
390
0
 62
     7
 48
0.031958
100
AcDbLine
 10
10.4
 20
-22.5
 30
0.0
 11
10.4
 21
-23.778312
 31
0.0
210
0.0
220
0.0
230
1.0
  0
LINE
  5
1B6
100
AcDbEntity
  8
0
370
    35
390
0
 62
     7
 48
0.036084
100
AcDbLine
 10
-9.15
 20
-24.5
 30
0.0
 11
-10.4
 21
-23.778312
 31
0.0
210
0.0
220
0.0
230
1.0
  0
LINE
  5
1B7
100
AcDbEntity
  8
0
370
    35
390
0
 62
     7
 48
0.036084
100
AcDbLine
 10
9.15
 20
-24.5
 30
0.0
 11
10.4
 21
-23.778312
 31
0.0
210
0.0
220
0.0
230
1.0
  0
LINE
  5
1B8
100
AcDbEntity
  8
0
370
    35
390
0
 62
     7
 48
0.0025
100
AcDbLine
 10
-9.15
 20
-24.5
 30
0.0
 11
-9.15
 21
-24.6
 31
0.0
210
0.0
220
0.0
230
1.0
  0
LINE
  5
1B9
100
AcDbEntity
  8
0
370
    35
390
0
 62
     7
 48
0.0025
100
AcDbLine
 10
9.15
 20
-24.5
 30
0.0
 11
9.15
 21
-24.6
 31
0.0
210
0.0
220
0.0
230
1.0
  0
LINE
  5
1BA
100
AcDbEntity
  8
0
370
    35
390
0
 62
     7
 48
0.0025
100
AcDbLine
 10
9.15
 20
-28.1
 30
0.0
 11
9.15
 21
-28.2
 31
0.0
210
0.0
220
0.0
230
1.0
  0
LINE
  5
1BB
100
AcDbEntity
  8
0
370
    35
390
0
 62
     7
 48
0.0025
100
AcDbLine
 10
-9.15
 20
-28.1
 30
0.0
 11
-9.15
 21
-28.2
 31
0.0
210
0.0
220
0.0
230
1.0
  0
LINE
  5
1BC
100
AcDbEntity
  8
0
370
    35
390
0
 62
     7
 48
0.037528
100
AcDbLine
 10
9.15
 20
-28.2
 30
0.0
 11
10.45
 21
-28.950555
 31
0.0
210
0.0
220
0.0
230
1.0
  0
LINE
  5
1BD
100
AcDbEntity
  8
0
370
    35
390
0
 62
     7
 48
0.037528
100
AcDbLine
 10
-9.15
 20
-28.2
 30
0.0
 11
-10.45
 21
-28.950555
 31
0.0
210
0.0
220
0.0
230
1.0
  0
LINE
  5
1BE
100
AcDbEntity
  8
0
370
    35
390
0
 62
     7
 48
0.181236
100
AcDbLine
 10
10.45
 20
-28.950555
 30
0.0
 11
10.45
 21
-36.2
 31
0.0
210
0.0
220
0.0
230
1.0
  0
LINE
  5
1BF
100
AcDbEntity
  8
0
370
    35
390
0
 62
     7
 48
0.181236
100
AcDbLine
 10
-10.45
 20
-28.950555
 30
0.0
 11
-10.45
 21
-36.2
 31
0.0
210
0.0
220
0.0
230
1.0
  0
LINE
  5
1C0
100
AcDbEntity
  8
0
370
    35
390
0
 62
     7
 48
0.045962
100
AcDbLine
 10
9.15
 20
-37.5
 30
0.0
 11
10.45
 21
-36.2
 31
0.0
210
0.0
220
0.0
230
1.0
  0
LINE
  5
1C1
100
AcDbEntity
  8
0
370
    35
390
0
 62
     7
 48
0.045962
100
AcDbLine
 10
-9.15
 20
-37.5
 30
0.0
 11
-10.45
 21
-36.2
 31
0.0
210
0.0
220
0.0
230
1.0
  0
LINE
  5
1C2
100
AcDbEntity
  8
0
370
    35
390
0
 62
     7
 48
0.017678
100
AcDbLine
 10
-25.5
 20
0.5
 30
0.0
 11
-26.0
 21
0.0
 31
0.0
210
0.0
220
0.0
230
1.0
  0
LINE
  5
1C3
100
AcDbEntity
  8
0
370
    35
390
0
 62
     7
 48
0.017678
100
AcDbLine
 10
25.5
 20
0.5
 30
0.0
 11
26.0
 21
0.0
 31
0.0
210
0.0
220
0.0
230
1.0
  0
LINE
  5
1C4
100
AcDbEntity
  8
0
370
    35
390
0
 62
     7
 48
0.325
100
AcDbLine
 10
26.0
 20
-13.0
 30
0.0
 11
26.0
 21
0.0
 31
0.0
210
0.0
220
0.0
230
1.0
  0
LINE
  5
1C5
100
AcDbEntity
  8
0
370
    35
390
0
 62
     7
 48
0.325
100
AcDbLine
 10
-26.0
 20
-13.0
 30
0.0
 11
-26.0
 21
0.0
 31
0.0
210
0.0
220
0.0
230
1.0
  0
LINE
  5
1C6
100
AcDbEntity
  8
0
370
    35
390
0
 62
     7
 48
0.017678
100
AcDbLine
 10
-10.05
 20
-28.1
 30
0.0
 11
-10.55
 21
-27.6
 31
0.0
210
0.0
220
0.0
230
1.0
  0
LINE
  5
1C7
100
AcDbEntity
  8
0
370
    35
390
0
 62
     7
 48
0.017678
100
AcDbLine
 10
10.05
 20
-28.1
 30
0.0
 11
10.55
 21
-27.6
 31
0.0
210
0.0
220
0.0
230
1.0
  0
LINE
  5
1C8
100
AcDbEntity
  8
0
370
    35
390
0
 62
     7
 48
0.0625
100
AcDbLine
 10
-10.55
 20
-27.6
 30
0.0
 11
-10.55
 21
-25.1
 31
0.0
210
0.0
220
0.0
230
1.0
  0
LINE
  5
1C9
100
AcDbEntity
  8
0
370
    35
390
0
 62
     7
 48
0.0625
100
AcDbLine
 10
10.55
 20
-27.6
 30
0.0
 11
10.55
 21
-25.1
 31
0.0
210
0.0
220
0.0
230
1.0
  0
LINE
  5
1CA
100
AcDbEntity
  8
0
370
    35
390
0
 62
     7
 48
0.017678
100
AcDbLine
 10
-10.05
 20
-24.6
 30
0.0
 11
-10.55
 21
-25.1
 31
0.0
210
0.0
220
0.0
230
1.0
  0
LINE
  5
1CB
100
AcDbEntity
  8
0
370
    35
390
0
 62
     7
 48
0.017678
100
AcDbLine
 10
10.05
 20
-24.6
 30
0.0
 11
10.55
 21
-25.1
 31
0.0
210
0.0
220
0.0
230
1.0
  0
ARC
  5
1CC
100
AcDbEntity
  8
0
370
    35
390
0
 62
     7
100
AcDbCircle
 10
20.5
 20
48.5
 30
0.0
 40
2.5
210
0.0
220
0.0
230
1.0
100
AcDbArc
 50
0.0
 51
90.0
  0
ARC
  5
1CD
100
AcDbEntity
  8
0
370
    35
390
0
 62
     7
100
AcDbCircle
 10
-20.5
 20
48.5
 30
0.0
 40
2.5
210
0.0
220
0.0
230
1.0
100
AcDbArc
 50
90.0
 51
180.0
  0
ARC
  5
1CE
100
AcDbEntity
  8
0
370
    35
390
0
 62
     7
100
AcDbCircle
 10
25.0
 20
2.0
 30
0.0
 40
0.5
210
0.0
220
0.0
230
1.0
100
AcDbArc
 50
360.0
 51
90.0
  0
ARC
  5
1CF
100
AcDbEntity
  8
0
370
    35
390
0
 62
     7
100
AcDbCircle
 10
-25.0
 20
2.0
 30
0.0
 40
0.5
210
0.0
220
0.0
230
1.0
100
AcDbArc
 50
90.0
 51
180.0
  0
ARC
  5
1D0
100
AcDbEntity
  8
0
370
    35
390
0
 62
     7
100
AcDbCircle
 10
-23.500026
 20
12.633995
 30
0.0
 40
0.499973
210
0.0
220
0.0
230
1.0
100
AcDbArc
 50
119.99617
 51
180.001147
  0
ARC
  5
1D1
100
AcDbEntity
  8
0
370
    35
390
0
 62
     7
100
AcDbCircle
 10
23.500026
 20
12.633995
 30
0.0
 40
0.499973
210
0.0
220
0.0
230
1.0
100
AcDbArc
 50
359.998853
 51
60.00383
  0
LINE
  5
1D2
100
AcDbEntity
  8
0
370
    35
390
0
 62
     7
100
AcDbLine
 10
23.0
 20
14.07735
 30
0.0
 11
23.0
 21
48.5
 31
0.0
210
0.0
220
0.0
230
1.0
  0
LINE
  5
1D3
100
AcDbEntity
  8
0
370
    35
390
0
 62
     7
100
AcDbLine
 10
-23.0
 20
14.07735
 30
0.0
 11
-23.0
 21
48.5
 31
0.0
210
0.0
220
0.0
230
1.0
  0
LINE
  5
1D4
100
AcDbEntity
  8
0
370
    35
390
0
 62
     7
 48
0.007216
100
AcDbLine
 10
-23.5
 20
13.211325
 30
0.0
 11
-23.749981
 21
13.066998
 31
0.0
210
0.0
220
0.0
230
1.0
  0
LINE
  5
1D5
100
AcDbEntity
  8
0
370
    35
390
0
 62
     7
 48
0.007216
100
AcDbLine
 10
23.5
 20
13.211325
 30
0.0
 11
23.749981
 21
13.066998
 31
0.0
210
0.0
220
0.0
230
1.0
  0
ARC
  5
1D6
100
AcDbEntity
  8
0
370
    35
390
0
 62
     7
100
AcDbCircle
 10
24.0
 20
14.07735
 30
0.0
 40
1.0
210
0.0
220
0.0
230
1.0
100
AcDbArc
 50
180.0
 51
240.0
  0
ARC
  5
1D7
100
AcDbEntity
  8
0
370
    35
390
0
 62
     7
100
AcDbCircle
 10
-24.0
 20
14.07735
 30
0.0
 40
1.0
210
0.0
220
0.0
230
1.0
100
AcDbArc
 50
300.0
 51
0.0
  0
LINE
  5
1D8
100
AcDbEntity
  8
0
370
    35
390
0
 62
     7
 48
0.0375
100
AcDbLine
 10
25.5
 20
0.5
 30
0.0
 11
25.5
 21
2.0
 31
0.0
210
0.0
220
0.0
230
1.0
  0
LINE
  5
1D9
100
AcDbEntity
  8
0
370
    35
390
0
 62
     7
 48
0.0375
100
AcDbLine
 10
-25.5
 20
0.5
 30
0.0
 11
-25.5
 21
2.0
 31
0.0
210
0.0
220
0.0
230
1.0
  0
ENDBLK
  5
1DA
100
AcDbEntity
  8
0
390
0
100
AcDbBlockEnd
  0
ENDSEC
  0
SECTION
  2
ENTITIES
  0
VIEWPORT
  5
5B
100
AcDbEntity
 67
     1
  8
0
370
     0
390
0
 62
     0
 48
0.0
100
AcDbViewport
 10
0.0
 20
0.0
 30
0.0
 40
1000.0
 41
1000.0
 68
     1
 69
     1
 12
0.0
 22
0.0
 13
0.0
 23
0.0
 14
1.0
 24
1.0
 15
1.0
 25
1.0
 16
0.0
 26
0.0
 36
1.0
 17
0.0
 27
0.0
 37
0.0
 42
50.0
 43
0.0
 44
0.0
 45
1000.0
 50
0.0
 51
0.0
 72
   100
 90
        0
340
0
  1

281
     0
 71
     0
 74
     1
110
0.0
120
0.0
130
0.0
111
1.0
121
0.0
131
0.0
112
0.0
122
1.0
132
0.0
345
0
346
0
 79
     0
146
0.0
  0
LINE
  5
25
100
AcDbEntity
  8
0
370
    35
390
0
 62
     7
100
AcDbLine
 10
0.0
 20
0.0
 30
0.0
 11
210.0
 21
0.0
 31
0.0
210
0.0
220
0.0
230
1.0
  0
LINE
  5
26
100
AcDbEntity
  8
0
370
    35
390
0
 62
     7
100
AcDbLine
 10
210.0
 20
0.0
 30
0.0
 11
210.0
 21
297.0
 31
0.0
210
0.0
220
0.0
230
1.0
  0
LINE
  5
27
100
AcDbEntity
  8
0
370
    35
390
0
 62
     7
100
AcDbLine
 10
210.0
 20
297.0
 30
0.0
 11
0.0
 21
297.0
 31
0.0
210
0.0
220
0.0
230
1.0
  0
LINE
  5
28
100
AcDbEntity
  8
0
370
    35
390
0
 62
     7
100
AcDbLine
 10
0.0
 20
297.0
 30
0.0
 11
0.0
 21
0.0
 31
0.0
210
0.0
220
0.0
230
1.0
  0
LINE
  5
29
100
AcDbEntity
  8
0
370
    35
390
0
 62
     7
100
AcDbLine
 10
20.0
 20
10.0
 30
0.0
 11
200.0
 21
10.0
 31
0.0
210
0.0
220
0.0
230
1.0
  0
LINE
  5
2A
100
AcDbEntity
  8
0
370
    35
390
0
 62
     7
100
AcDbLine
 10
200.0
 20
10.0
 30
0.0
 11
200.0
 21
287.0
 31
0.0
210
0.0
220
0.0
230
1.0
  0
LINE
  5
2B
100
AcDbEntity
  8
0
370
    35
390
0
 62
     7
100
AcDbLine
 10
200.0
 20
287.0
 30
0.0
 11
20.0
 21
287.0
 31
0.0
210
0.0
220
0.0
230
1.0
  0
LINE
  5
2C
100
AcDbEntity
  8
0
370
    35
390
0
 62
     7
100
AcDbLine
 10
20.0
 20
287.0
 30
0.0
 11
20.0
 21
10.0
 31
0.0
210
0.0
220
0.0
230
1.0
  0
LINE
  5
2D
100
AcDbEntity
  8
0
370
    13
390
0
 62
     7
 48
0.1
100
AcDbLine
 10
155.0
 20
287.0
 30
0.0
 11
155.0
 21
291.0
 31
0.0
210
0.0
220
0.0
230
1.0
  0
LINE
  5
2E
100
AcDbEntity
  8
0
370
    13
390
0
 62
     7
 48
0.1
100
AcDbLine
 10
200.0
 20
240.833333
 30
0.0
 11
204.0
 21
240.833333
 31
0.0
210
0.0
220
0.0
230
1.0
  0
LINE
  5
2F
100
AcDbEntity
  8
0
370
    13
390
0
 62
     7
 48
0.1
100
AcDbLine
 10
200.0
 20
194.666667
 30
0.0
 11
204.0
 21
194.666667
 31
0.0
210
0.0
220
0.0
230
1.0
  0
LINE
  5
30
100
AcDbEntity
  8
0
370
    13
390
0
 62
     7
 48
0.1
100
AcDbLine
 10
200.0
 20
148.5
 30
0.0
 11
204.0
 21
148.5
 31
0.0
210
0.0
220
0.0
230
1.0
  0
LINE
  5
31
100
AcDbEntity
  8
0
370
    13
390
0
 62
     7
 48
0.1
100
AcDbLine
 10
200.0
 20
102.333333
 30
0.0
 11
204.0
 21
102.333333
 31
0.0
210
0.0
220
0.0
230
1.0
  0
LINE
  5
32
100
AcDbEntity
  8
0
370
    13
390
0
 62
     7
 48
0.1
100
AcDbLine
 10
200.0
 20
56.166667
 30
0.0
 11
204.0
 21
56.166667
 31
0.0
210
0.0
220
0.0
230
1.0
  0
LINE
  5
33
100
AcDbEntity
  8
0
370
    13
390
0
 62
     7
 48
0.1
100
AcDbLine
 10
110.0
 20
291.0
 30
0.0
 11
110.0
 21
287.0
 31
0.0
210
0.0
220
0.0
230
1.0
  0
LINE
  5
34
100
AcDbEntity
  8
0
370
    13
390
0
 62
     7
 48
0.1
100
AcDbLine
 10
65.0
 20
287.0
 30
0.0
 11
65.0
 21
291.0
 31
0.0
210
0.0
220
0.0
230
1.0
  0
LINE
  5
35
100
AcDbEntity
  8
0
370
    13
390
0
 62
     7
 48
0.1
100
AcDbLine
 10
16.0
 20
102.333333
 30
0.0
 11
20.0
 21
102.333333
 31
0.0
210
0.0
220
0.0
230
1.0
  0
LINE
  5
36
100
AcDbEntity
  8
0
370
    13
390
0
 62
     7
 48
0.1
100
AcDbLine
 10
16.0
 20
56.166667
 30
0.0
 11
20.0
 21
56.166667
 31
0.0
210
0.0
220
0.0
230
1.0
  0
LINE
  5
37
100
AcDbEntity
  8
0
370
    13
390
0
 62
     7
 48
0.1
100
AcDbLine
 10
16.0
 20
194.666667
 30
0.0
 11
20.0
 21
194.666667
 31
0.0
210
0.0
220
0.0
230
1.0
  0
LINE
  5
38
100
AcDbEntity
  8
0
370
    13
390
0
 62
     7
 48
0.1
100
AcDbLine
 10
16.0
 20
148.5
 30
0.0
 11
20.0
 21
148.5
 31
0.0
210
0.0
220
0.0
230
1.0
  0
LINE
  5
39
100
AcDbEntity
  8
0
370
    13
390
0
 62
     7
 48
0.1
100
AcDbLine
 10
16.0
 20
240.833333
 30
0.0
 11
20.0
 21
240.833333
 31
0.0
210
0.0
220
0.0
230
1.0
  0
LINE
  5
3A
100
AcDbEntity
  8
0
370
    13
390
0
 62
     7
 48
0.1
100
AcDbLine
 10
155.0
 20
6.0
 30
0.0
 11
155.0
 21
10.0
 31
0.0
210
0.0
220
0.0
230
1.0
  0
LINE
  5
3B
100
AcDbEntity
  8
0
370
    13
390
0
 62
     7
 48
0.1
100
AcDbLine
 10
110.0
 20
10.0
 30
0.0
 11
110.0
 21
6.0
 31
0.0
210
0.0
220
0.0
230
1.0
  0
LINE
  5
3C
100
AcDbEntity
  8
0
370
    13
390
0
 62
     7
 48
0.1
100
AcDbLine
 10
65.0
 20
6.0
 30
0.0
 11
65.0
 21
10.0
 31
0.0
210
0.0
220
0.0
230
1.0
  0
LINE
  5
3D
100
AcDbEntity
  8
0
370
    13
390
0
 62
     7
 48
0.25
100
AcDbLine
 10
16.0
 20
148.5
 30
0.0
 11
6.0
 21
148.5
 31
0.0
210
0.0
220
0.0
230
1.0
  0
LINE
  5
3E
100
AcDbEntity
  8
0
370
    13
390
0
 62
     7
 48
0.141421
100
AcDbLine
 10
200.0
 20
287.0
 30
0.0
 11
204.0
 21
291.0
 31
0.0
210
0.0
220
0.0
230
1.0
  0
LINE
  5
3F
100
AcDbEntity
  8
0
370
    13
390
0
 62
     7
 48
0.141421
100
AcDbLine
 10
20.0
 20
287.0
 30
0.0
 11
16.0
 21
291.0
 31
0.0
210
0.0
220
0.0
230
1.0
  0
LINE
  5
40
100
AcDbEntity
  8
0
370
    13
390
0
 62
     7
100
AcDbLine
 10
16.0
 20
291.0
 30
0.0
 11
204.0
 21
291.0
 31
0.0
210
0.0
220
0.0
230
1.0
  0
LINE
  5
41
100
AcDbEntity
  8
0
370
    13
390
0
 62
     7
100
AcDbLine
 10
204.0
 20
6.0
 30
0.0
 11
204.0
 21
291.0
 31
0.0
210
0.0
220
0.0
230
1.0
  0
LINE
  5
42
100
AcDbEntity
  8
0
370
    13
390
0
 62
     7
100
AcDbLine
 10
204.0
 20
6.0
 30
0.0
 11
16.0
 21
6.0
 31
0.0
210
0.0
220
0.0
230
1.0
  0
LINE
  5
43
100
AcDbEntity
  8
0
370
    13
390
0
 62
     7
100
AcDbLine
 10
16.0
 20
291.0
 30
0.0
 11
16.0
 21
6.0
 31
0.0
210
0.0
220
0.0
230
1.0
  0
LINE
  5
44
100
AcDbEntity
  8
0
370
    13
390
0
 62
     7
 48
0.141421
100
AcDbLine
 10
20.0
 20
10.0
 30
0.0
 11
16.0
 21
6.0
 31
0.0
210
0.0
220
0.0
230
1.0
  0
LINE
  5
45
100
AcDbEntity
  8
0
370
    13
390
0
 62
     7
 48
0.1
100
AcDbLine
 10
200.0
 20
10.0
 30
0.0
 11
204.0
 21
10.0
 31
0.0
210
0.0
220
0.0
230
1.0
  0
LINE
  5
46
100
AcDbEntity
  8
0
370
    13
390
0
 62
     7
 48
0.1
100
AcDbLine
 10
200.0
 20
10.0
 30
0.0
 11
200.0
 21
6.0
 31
0.0
210
0.0
220
0.0
230
1.0
  0
LINE
  5
47
100
AcDbEntity
  8
0
370
    35
390
0
 62
     7
100
AcDbLine
 10
20.0
 20
31.5
 30
0.0
 11
20.0
 21
10.0
 31
0.0
210
0.0
220
0.0
230
1.0
  0
LINE
  5
48
100
AcDbEntity
  8
0
370
    35
390
0
 62
     7
100
AcDbLine
 10
71.0
 20
31.5
 30
0.0
 11
71.0
 21
10.0
 31
0.0
210
0.0
220
0.0
230
1.0
  0
LINE
  5
49
100
AcDbEntity
  8
0
370
    13
390
0
 62
   252
100
AcDbLine
 10
148.312393
 20
18.5
 30
0.0
 11
199.5
 21
18.5
 31
0.0
210
0.0
220
0.0
230
1.0
  0
LINE
  5
4A
100
AcDbEntity
  8
0
370
    35
390
0
 62
     7
 48
0.3375
100
AcDbLine
 10
147.812393
 20
18.0
 30
0.0
 11
147.812393
 21
31.5
 31
0.0
210
0.0
220
0.0
230
1.0
  0
LINE
  5
4B
100
AcDbEntity
  8
0
370
    35
390
0
 62
     7
100
AcDbLine
 10
20.0
 20
31.5
 30
0.0
 11
200.0
 21
31.5
 31
0.0
210
0.0
220
0.0
230
1.0
  0
LINE
  5
4C
100
AcDbEntity
  8
0
370
    35
390
0
 62
     7
100
AcDbLine
 10
147.812393
 20
31.5
 30
0.0
 11
200.0
 21
31.5
 31
0.0
210
0.0
220
0.0
230
1.0
  0
LINE
  5
4D
100
AcDbEntity
  8
0
370
    35
390
0
 62
     7
100
AcDbLine
 10
147.812393
 20
18.0
 30
0.0
 11
198.5
 21
18.0
 31
0.0
210
0.0
220
0.0
230
1.0
  0
LINE
  5
4E
100
AcDbEntity
  8
0
370
    35
390
0
 62
     7
 48
0.325
100
AcDbLine
 10
187.0
 20
18.0
 30
0.0
 11
200.0
 21
18.0
 31
0.0
210
0.0
220
0.0
230
1.0
  0
LINE
  5
4F
100
AcDbEntity
  8
0
370
    13
390
0
 62
     7
100
AcDbLine
 10
148.312393
 20
31.0
 30
0.0
 11
199.5
 21
31.0
 31
0.0
210
0.0
220
0.0
230
1.0
  0
LINE
  5
50
100
AcDbEntity
  8
0
370
    13
390
0
 62
     7
 48
0.3125
100
AcDbLine
 10
199.5
 20
31.0
 30
0.0
 11
199.5
 21
18.5
 31
0.0
210
0.0
220
0.0
230
1.0
  0
LINE
  5
51
100
AcDbEntity
  8
0
370
    13
390
0
 62
     7
 48
0.3125
100
AcDbLine
 10
148.312393
 20
18.5
 30
0.0
 11
148.312393
 21
31.0
 31
0.0
210
0.0
220
0.0
230
1.0
  0
LINE
  5
52
100
AcDbEntity
  8
0
370
    35
390
0
 62
     7
100
AcDbLine
 10
147.812393
 20
18.0
 30
0.0
 11
71.0
 21
18.0
 31
0.0
210
0.0
220
0.0
230
1.0
  0
LINE
  5
53
100
AcDbEntity
  8
0
370
    35
390
0
 62
     7
100
AcDbLine
 10
20.0
 20
10.0
 30
0.0
 11
200.0
 21
10.0
 31
0.0
210
0.0
220
0.0
230
1.0
  0
LINE
  5
54
100
AcDbEntity
  8
0
370
    35
390
0
 62
     7
100
AcDbLine
 10
200.0
 20
10.0
 30
0.0
 11
200.0
 21
31.5
 31
0.0
210
0.0
220
0.0
230
1.0
  0
DIMENSION
  5
56
100
AcDbEntity
  8
0
370
     0
390
0
 62
     0
100
AcDbDimension
  2
*D29
 10
101.903432
 20
117.858528
 30
0.0
 11
139.940193
 21
117.858528
 31
0.0
 70
   161
 71
     5
 72
     1
 41
1.0
 42
0.0
210
0.0
220
0.0
230
1.0
 52
89.999523
  1
G1/2" ISO 228/1
  3
STANDARD
100
AcDbAlignedDimension
 13
122.803432
 23
128.613026
 33
0.0
 14
101.903432
 24
128.613026
 34
0.0
  0
DIMENSION
  5
58
100
AcDbEntity
  8
0
370
     0
390
0
 62
     0
100
AcDbDimension
  2
*D30
 10
64.661308
 20
215.813026
 30
0.0
 11
64.661308
 21
171.218666
 31
0.0
 70
   160
 71
     5
 72
     1
 41
1.0
 42
0.0
210
0.0
220
0.0
230
1.0
 52
89.999523
  3
STANDARD
100
AcDbAlignedDimension
 13
103.203432
 23
127.313026
 33
0.0
 14
91.853432
 24
215.813026
 34
0.0
 50
89.999523
100
AcDbRotatedDimension
  0
DIMENSION
  5
5A
100
AcDbEntity
  8
0
370
     0
390
0
 62
     0
100
AcDbDimension
  2
*D31
 10
88.383432
 20
226.232094
 30
0.0
 11
112.670338
 21
226.232094
 31
0.0
 70
   161
 71
     5
 72
     1
 41
1.0
 42
0.0
210
0.0
220
0.0
230
1.0
 52
89.999523
  1
Ottagono ch.<>
  3
STANDARD
100
AcDbAlignedDimension
 13
136.323432
 23
176.580976
 33
0.0
 14
88.383432
 24
176.580976
 34
0.0
  0
INSERT
  5
1DB
100
AcDbEntity
  8
0
370
     0
390
0
100
AcDbBlockReference
  2
BLOCK1
 10
0.0
 20
0.0
 30
0.0
210
0.0
220
0.0
230
1.0
  0
INSERT
  5
1DC
100
AcDbEntity
  8
0
370
     0
390
0
100
AcDbBlockReference
  2
BLOCK2
 10
0.0
 20
0.0
 30
0.0
210
0.0
220
0.0
230
1.0
  0
INSERT
  5
1DD
100
AcDbEntity
  8
0
370
     0
390
0
100
AcDbBlockReference
  2
BLOCK3
 10
0.0
 20
0.0
 30
0.0
210
0.0
220
0.0
230
1.0
  0
INSERT
  5
1DE
100
AcDbEntity
  8
0
370
     0
390
0
100
AcDbBlockReference
  2
BLOCK4
 10
0.0
 20
0.0
 30
0.0
210
0.0
220
0.0
230
1.0
  0
INSERT
  5
1DF
100
AcDbEntity
  8
0
370
     0
390
0
100
AcDbBlockReference
  2
BLOCK5
 10
0.0
 20
0.0
 30
0.0
210
0.0
220
0.0
230
1.0
  0
INSERT
  5
1E0
100
AcDbEntity
  8
0
370
     0
390
0
100
AcDbBlockReference
  2
BLOCK6
 10
0.0
 20
0.0
 30
0.0
210
0.0
220
0.0
230
1.0
  0
INSERT
  5
1E1
100
AcDbEntity
  8
0
370
     0
390
0
100
AcDbBlockReference
  2
BLOCK7
 10
0.0
 20
0.0
 30
0.0
210
0.0
220
0.0
230
1.0
  0
INSERT
  5
1E2
100
AcDbEntity
  8
0
370
     0
390
0
100
AcDbBlockReference
  2
BLOCK8
 10
0.0
 20
0.0
 30
0.0
210
0.0
220
0.0
230
1.0
  0
INSERT
  5
1E3
100
AcDbEntity
  8
0
370
     0
390
0
100
AcDbBlockReference
  2
BLOCK9
 10
0.0
 20
0.0
 30
0.0
210
0.0
220
0.0
230
1.0
  0
INSERT
  5
1E4
100
AcDbEntity
  8
0
370
     0
390
0
100
AcDbBlockReference
  2
BLOCK10
 10
0.0
 20
0.0
 30
0.0
210
0.0
220
0.0
230
1.0
  0
INSERT
  5
1E5
100
AcDbEntity
  8
0
370
     0
390
0
100
AcDbBlockReference
  2
BLOCK11
 10
0.0
 20
0.0
 30
0.0
210
0.0
220
0.0
230
1.0
  0
INSERT
  5
1E6
100
AcDbEntity
  8
0
370
     0
390
0
100
AcDbBlockReference
  2
BLOCK12
 10
0.0
 20
0.0
 30
0.0
210
0.0
220
0.0
230
1.0
  0
INSERT
  5
1E7
100
AcDbEntity
  8
0
370
     0
390
0
100
AcDbBlockReference
  2
BLOCK13
 10
0.0
 20
0.0
 30
0.0
210
0.0
220
0.0
230
1.0
  0
INSERT
  5
1E8
100
AcDbEntity
  8
0
370
     0
390
0
100
AcDbBlockReference
  2
BLOCK14
 10
0.0
 20
0.0
 30
0.0
210
0.0
220
0.0
230
1.0
  0
INSERT
  5
1E9
100
AcDbEntity
  8
0
370
     0
390
0
100
AcDbBlockReference
  2
BLOCK15
 10
0.0
 20
0.0
 30
0.0
210
0.0
220
0.0
230
1.0
  0
INSERT
  5
1EA
100
AcDbEntity
  8
0
370
     0
390
0
100
AcDbBlockReference
  2
BLOCK16
 10
0.0
 20
0.0
 30
0.0
210
0.0
220
0.0
230
1.0
  0
INSERT
  5
1EB
100
AcDbEntity
  8
0
370
     0
390
0
100
AcDbBlockReference
  2
BLOCK17
 10
0.0
 20
0.0
 30
0.0
210
0.0
220
0.0
230
1.0
  0
INSERT
  5
1EC
100
AcDbEntity
  8
0
370
     0
390
0
100
AcDbBlockReference
  2
BLOCK18
 10
0.0
 20
0.0
 30
0.0
210
0.0
220
0.0
230
1.0
  0
INSERT
  5
1ED
100
AcDbEntity
  8
0
370
     0
390
0
100
AcDbBlockReference
  2
BLOCK19
 10
0.0
 20
0.0
 30
0.0
210
0.0
220
0.0
230
1.0
  0
INSERT
  5
1EE
100
AcDbEntity
  8
0
370
     0
390
0
100
AcDbBlockReference
  2
BLOCK20
 10
0.0
 20
0.0
 30
0.0
210
0.0
220
0.0
230
1.0
  0
INSERT
  5
1EF
100
AcDbEntity
  8
0
370
     0
390
0
100
AcDbBlockReference
  2
BLOCK21
 10
0.0
 20
0.0
 30
0.0
210
0.0
220
0.0
230
1.0
  0
INSERT
  5
1F0
100
AcDbEntity
  8
0
370
     0
390
0
100
AcDbBlockReference
  2
BLOCK22
 10
0.0
 20
0.0
 30
0.0
210
0.0
220
0.0
230
1.0
  0
INSERT
  5
1F1
100
AcDbEntity
  8
0
370
     0
390
0
100
AcDbBlockReference
  2
BLOCK23
 10
0.0
 20
0.0
 30
0.0
210
0.0
220
0.0
230
1.0
  0
INSERT
  5
1F2
100
AcDbEntity
  8
0
370
     0
390
0
100
AcDbBlockReference
  2
BLOCK24
 10
0.0
 20
0.0
 30
0.0
210
0.0
220
0.0
230
1.0
  0
INSERT
  5
1F3
100
AcDbEntity
  8
0
370
     0
390
0
100
AcDbBlockReference
  2
BLOCK25
 10
0.0
 20
0.0
 30
0.0
210
0.0
220
0.0
230
1.0
  0
INSERT
  5
1F4
100
AcDbEntity
  8
0
370
     0
390
0
100
AcDbBlockReference
  2
BLOCK26
 10
0.0
 20
0.0
 30
0.0
210
0.0
220
0.0
230
1.0
  0
INSERT
  5
1F5
100
AcDbEntity
  8
0
370
     0
390
0
100
AcDbBlockReference
  2
BLOCK27
 10
0.0
 20
0.0
 30
0.0
210
0.0
220
0.0
230
1.0
  0
INSERT
  5
1F6
100
AcDbEntity
  8
0
370
     0
390
0
100
AcDbBlockReference
  2
BLOCK28
 10
0.0
 20
0.0
 30
0.0
210
0.0
220
0.0
230
1.0
  0
INSERT
  5
1F7
100
AcDbEntity
  8
0
370
     0
390
0
100
AcDbBlockReference
  2
BLOCK29
 10
0.0
 20
0.0
 30
0.0
210
0.0
220
0.0
230
1.0
  0
INSERT
  5
1F8
100
AcDbEntity
  8
0
370
     0
390
0
100
AcDbBlockReference
  2
BLOCK30
 10
112.353432
 20
164.813026
 30
0.0
210
0.0
220
0.0
230
1.0
  0
ENDSEC
  0
SECTION
  2
OBJECTS
  0
DICTIONARY
  5
19
100
AcDbDictionary
280
     0
281
     1
  3
ACAD_GROUP
350
1A
  3
ACAD_MLINESTYLE
350
1B
  3
ACAD_LAYOUT
350
1E
  3
ACAD_PLOTSETTINGS
350
22
  3
ACAD_PLOTSTYLENAME
350
1F
  3
ACAD_WIPEOUT_VARS
350
23
  0
DICTIONARY
  5
1A
102
{ACAD_REACTORS
330
19
102
}
100
AcDbDictionary
280
     0
281
     1
  0
DICTIONARY
  5
1B
102
{ACAD_REACTORS
330
19
102
}
100
AcDbDictionary
280
     0
281
     1
  3
Standard
350
1C
  0
MLINESTYLE
  5
1C
102
{ACAD_REACTORS
330
1B
102
}
100
AcDbMlineStyle
  2
Standard
 70
     0
  3

 62
     0
 51
90.0
 52
90.0
 71
     2
 49
0.5
 62
   256
  6
ByLayer
 49
-0.5
 62
   256
  6
ByLayer
  0
ACDBDICTIONARYWDFLT
  5
1F
102
{ACAD_REACTORS
330
19
102
}
100
AcDbDictionary
281
     1
  3
Normal
350
1D
100
AcDbDictionaryWithDefault
340
1D
  0
ACDBPLACEHOLDER
  5
1D
102
{ACAD_REACTORS
330
1F
102
}
  0
LAYOUT
  5
20
102
{ACAD_REACTORS
330
1E
102
}
100
AcDbPlotSettings
  1

  2

  4

  6

 40
0.0
 41
0.0
 42
0.0
 43
0.0
 44
0.0
 45
0.0
 46
0.0
 47
0.0
 48
0.0
 49
0.0
140
0.0
141
0.0
142
1.0
143
1.0
 70
  1024
 72
     0
 73
     0
 74
     0
  7

 75
     0
147
1.0
148
0.0
149
0.0
100
AcDbLayout
  1
Model
 70
     0
 71
     0
 10
0.0
 20
0.0
 11
0.0
 21
0.0
 12
0.0
 22
0.0
 32
0.0
 14
0.0
 24
0.0
 34
0.0
 15
0.0
 25
0.0
 35
0.0
146
0.0
 13
0.0
 23
0.0
 33
0.0
 16
0.0
 26
0.0
 36
0.0
 17
0.0
 27
0.0
 37
0.0
 76
     0
330
A
331
0
345
0
346
0
  0
LAYOUT
  5
21
102
{ACAD_REACTORS
330
1E
102
}
100
AcDbPlotSettings
  1

  2

  4

  6

 40
0.0
 41
0.0
 42
0.0
 43
0.0
 44
0.0
 45
0.0
 46
0.0
 47
0.0
 48
0.0
 49
0.0
140
0.0
141
0.0
142
1.0
143
1.0
 70
     0
 72
     0
 73
     0
 74
     0
  7

 75
     0
147
1.0
148
0.0
149
0.0
100
AcDbLayout
  1
Layout1
 70
     0
 71
     0
 10
0.0
 20
0.0
 11
0.0
 21
0.0
 12
0.0
 22
0.0
 32
0.0
 14
0.0
 24
0.0
 34
0.0
 15
0.0
 25
0.0
 35
0.0
146
0.0
 13
0.0
 23
0.0
 33
0.0
 16
0.0
 26
0.0
 36
0.0
 17
0.0
 27
0.0
 37
0.0
 76
     0
330
B
331
0
345
0
346
0
  0
DICTIONARY
  5
1E
102
{ACAD_REACTORS
330
19
102
}
100
AcDbDictionary
280
     0
281
     1
  3
Layout1
350
21
  3
Model
350
20
  0
DICTIONARY
  5
22
102
{ACAD_REACTORS
330
19
102
}
100
AcDbDictionary
280
     0
281
     1
  0
WIPEOUTVARIABLES
  5
23
100
AcDbWipeoutVariables
 70
     1
  0
ENDSEC
  0
EOF
